<?xml version="1.0" standalone="no"?>
<!DOCTYPE svg PUBLIC "-//W3C//DTD SVG 1.1//EN" "http://www.w3.org/Graphics/SVG/1.1/DTD/svg11.dtd" >
<svg xmlns="http://www.w3.org/2000/svg">
<metadata>Generated by IcoMoon</metadata>
<defs>
<font id="icomoonpack3" horiz-adv-x="512">
<font-face units-per-em="512" ascent="480" descent="-32" />
<missing-glyph horiz-adv-x="512" />
<glyph unicode="&#x20;" horiz-adv-x="256" d="" />
<glyph unicode="&#xe000;" glyph-name="error" d="M277 192.333v128h-42v-128h42zM277 106.333v43h-42v-43h42zM256 426.333q88 0 150.5-62.5t62.5-150.5-62.5-150.5-150.5-62.5-150.5 62.5-62.5 150.5 62.5 150.5 150.5 62.5z" />
<glyph unicode="&#xe001;" glyph-name="error_outline" d="M256 42.333q70 0 120.5 50.5t50.5 120.5-50.5 120.5-120.5 50.5-120.5-50.5-50.5-120.5 50.5-120.5 120.5-50.5zM256 426.333q88 0 150.5-62.5t62.5-150.5-62.5-150.5-150.5-62.5-150.5 62.5-62.5 150.5 62.5 150.5 150.5 62.5zM235 320.333h42v-128h-42v128zM235 149.333h42v-43h-42v43z" />
<glyph unicode="&#xe002;" glyph-name="warning" d="M277 170.333v86h-42v-86h42zM277 85.333v43h-42v-43h42zM21 21.333l235 405 235-405h-470z" />
<glyph unicode="&#xe003;" glyph-name="add_alert" d="M341 191.333v43h-64v64h-42v-64h-64v-43h64v-64h42v64h64zM403 110.333l45-45v-23h-384v23l45 45v124q0 51 32 91.5t81 51.5v15q0 14 10 24t24 10 24-10 10-24v-15q49-11 81-51.5t32-91.5v-124zM214 21.333h84q0-17-12.5-30t-29.5-13-29.5 13-12.5 30z" />
<glyph unicode="&#xe004;" glyph-name="album" d="M256 234.333q9 0 15-6t6-15-6-15-15-6-15 6-6 15 6 15 15 6zM256 117.333q40 0 68 28t28 68-28 68-68 28-68-28-28-68 28-68 68-28zM256 426.333q88 0 150.5-62.5t62.5-150.5-62.5-150.5-150.5-62.5-150.5 62.5-62.5 150.5 62.5 150.5 150.5 62.5z" />
<glyph unicode="&#xe005;" glyph-name="av_timer" d="M128 213.333q0 9 6 15t15 6 15.5-6 6.5-15-6.5-15-15.5-6-15 6-6 15zM384 213.333q0-9-6-15t-15-6-15.5 6-6.5 15 6.5 15 15.5 6 15-6 6-15zM235 405.333h21q80 0 136-56t56-136-56-136-136-56-136 56-56 136q0 96 77 153v1l145-145-30-30-116 115q-33-41-33-94 0-62 43.5-105.5t105.5-43.5 105.5 43.5 43.5 105.5q0 56-37 98t-91 50v-41h-42v85zM235 106.333q0 9 6 15.5t15 6.5 15-6.5 6-15.5-6-15-15-6-15 6-6 15z" />
<glyph unicode="&#xe006;" glyph-name="closed_caption" d="M384 234.333v22q0 9-6 15t-15 6h-64q-9 0-15.5-6t-6.5-15v-86q0-9 6.5-15t15.5-6h64q9 0 15 6t6 15v22h-32v-11h-43v64h43v-11h32zM235 234.333v22q0 9-6.5 15t-15.5 6h-64q-9 0-15-6t-6-15v-86q0-9 6-15t15-6h64q9 0 15.5 6t6.5 15v22h-32v-11h-43v64h43v-11h32zM405 384.333q17 0 30-13t13-30v-256q0-17-13-30t-30-13h-298q-18 0-30.5 13t-12.5 30v256q0 17 12.5 30t30.5 13h298z" />
<glyph unicode="&#xe007;" glyph-name="equalizer" d="M341 277.333h86v-235h-86v235zM85 42.333v171h86v-171h-86zM213 42.333v342h86v-342h-86z" />
<glyph unicode="&#xe008;" glyph-name="explicit" d="M320 277.333v43h-128v-214h128v43h-85v43h85v42h-85v43h85zM405 405.333q17 0 30-13t13-30v-298q0-17-13-30t-30-13h-298q-17 0-30 13t-13 30v298q0 17 13 30t30 13h298z" />
<glyph unicode="&#xe009;" glyph-name="fast_forward" d="M277 341.333l182-128-182-128v256zM85 85.333v256l182-128z" />
<glyph unicode="&#xe00a;" glyph-name="fast_rewind" d="M245 213.333l182 128v-256zM235 85.333l-182 128 182 128v-256z" />
<glyph unicode="&#xe00b;" glyph-name="games" d="M352 277.333h117v-128h-117l-64 64zM192 117.333l64 64 64-64v-117h-128v117zM160 277.333l64-64-64-64h-117v128h117zM320 309.333l-64-64-64 64v117h128v-117z" />
<glyph unicode="&#xe00c;" glyph-name="hearing" d="M245 277.333q0 22 16 37.5t38 15.5 37.5-15.5 15.5-37.5-15.5-37.5-37.5-15.5-38 15.5-16 37.5zM163 413.333q-56-56-56-136t56-136l-30-30q-69 69-69 166t69 166zM363 42.333q17 0 29.5 13t12.5 30h43q0-35-25-60t-60-25q-20 0-35 7-41 21-59 76-7 22-36 44-41 30-61 67-23 41-23 83 0 63 43.5 106t106.5 43 106-43 43-106h-43q0 45-30.5 76t-75.5 31-76-31-31-76q0-32 17-63 14-27 50-54 40-30 51-64 13-38 36-50 8-4 17-4z" />
<glyph unicode="&#xe00d;" glyph-name="high_quality" d="M309 181.333v64h43v-64h-43zM384 170.333v86q0 9-6 15t-15 6h-64q-9 0-15.5-6t-6.5-15v-86q0-9 6.5-15t15.5-6h16v-32h32v32h16q9 0 15 6t6 15zM235 149.333v128h-32v-53h-43v53h-32v-128h32v43h43v-43h32zM405 384.333q17 0 30-13t13-30v-256q0-17-13-30t-30-13h-298q-18 0-30.5 13t-12.5 30v256q0 17 12.5 30t30.5 13h298z" />
<glyph unicode="&#xe00e;" glyph-name="loop" d="M256 85.333v64l85-85-85-86v64q-70 0-120.5 50.5t-50.5 120.5q0 50 27 91l31-31q-15-27-15-60 0-53 37.5-90.5t90.5-37.5zM256 384.333q70 0 120.5-50.5t50.5-120.5q0-50-27-91l-31 31q15 27 15 60 0 53-37.5 90.5t-90.5 37.5v-64l-85 85 85 86v-64z" />
<glyph unicode="&#xe00f;" glyph-name="mic" d="M369 234.333h36q0-54-37.5-94.5t-90.5-48.5v-70h-42v70q-53 8-90.5 48.5t-37.5 94.5h36q0-47 33.5-77.5t79.5-30.5 79.5 30.5 33.5 77.5zM256 170.333q-26 0-45 19t-19 45v128q0 26 19 45t45 19 45-19 19-45v-128q0-26-19-45t-45-19z" />
<glyph unicode="&#xe010;" glyph-name="mic_none" d="M369 234.333h36q0-54-37.5-94.5t-90.5-48.5v-70h-42v70q-53 8-90.5 48.5t-37.5 94.5h36q0-47 33.5-77.5t79.5-30.5 79.5 30.5 33.5 77.5zM230 364.333v-132q0-10 7.5-17.5t18.5-7.5q10 0 17.5 7t7.5 18l1 132q0 11-8 18.5t-18 7.5-18-7.5-8-18.5zM256 170.333q-26 0-45 19t-19 45v128q0 26 19 45t45 19 45-19 19-45v-128q0-26-19-45t-45-19z" />
<glyph unicode="&#xe011;" glyph-name="mic_off" d="M91 405.333l357-357-27-27-89 89q-22-14-55-19v-70h-42v70q-53 8-90.5 48.5t-37.5 94.5h36q0-47 33.5-77.5t79.5-30.5q25 0 49 11l-35 35q-8-2-14-2-26 0-45 19t-19 45v16l-128 128zM320 231.333l-128 127v4q0 26 19 45t45 19 45-19 19-45v-131zM405 234.333q0-37-19-70l-26 27q9 20 9 43h36z" />
<glyph unicode="&#xe012;" glyph-name="movie" d="M384 384.333h85v-299q0-17-12.5-30t-29.5-13h-342q-17 0-29.5 13t-12.5 30v256q0 17 12.5 30t29.5 13h22l42-86h64l-42 86h42l43-86h64l-43 86h43l43-86h64z" />
<glyph unicode="&#xe013;" glyph-name="library_add" d="M405 234.333v43h-85v85h-43v-85h-85v-43h85v-85h43v85h85zM427 426.333q17 0 29.5-12.5t12.5-29.5v-256q0-17-12.5-30t-29.5-13h-256q-17 0-30 13t-13 30v256q0 17 13 29.5t30 12.5h256zM85 341.333v-299h299v-42h-299q-17 0-29.5 12.5t-12.5 29.5v299h42z" />
<glyph unicode="&#xe014;" glyph-name="library_books" d="M405 320.333v42h-213v-42h213zM320 149.333v43h-128v-43h128zM405 234.333v43h-213v-43h213zM427 426.333q17 0 29.5-12.5t12.5-29.5v-256q0-17-12.5-30t-29.5-13h-256q-17 0-30 13t-13 30v256q0 17 13 29.5t30 12.5h256zM85 341.333v-299h299v-42h-299q-17 0-29.5 12.5t-12.5 29.5v299h42z" />
<glyph unicode="&#xe015;" glyph-name="library_music" d="M85 341.333v-299h299v-42h-299q-17 0-29.5 12.5t-12.5 29.5v299h42zM384 320.333v42h-85v-117q-14 11-32 11-22 0-38-16t-16-38 16-37.5 38-15.5 37.5 15.5 15.5 37.5v118h64zM427 426.333q17 0 29.5-12.5t12.5-29.5v-256q0-17-12.5-30t-29.5-13h-256q-17 0-30 13t-13 30v256q0 17 13 29.5t30 12.5h256z" />
<glyph unicode="&#xe016;" glyph-name="new_releases" d="M277 192.333v128h-42v-128h42zM277 106.333v43h-42v-43h42zM491 213.333l-52-59 7-79-77-17-40-68-73 31-73-31-40 67-77 18 7 79-52 59 52 60-7 78 77 17 40 68 73-31 73 31 40-68 77-17-7-79z" />
<glyph unicode="&#xe017;" glyph-name="not_interested" d="M391 108.333q36 45 36 105 0 70-50.5 120.5t-120.5 50.5q-60 0-105-36zM256 42.333q60 0 105 36l-240 240q-36-45-36-105 0-70 50.5-120.5t120.5-50.5zM256 426.333q88 0 150.5-62.5t62.5-150.5-62.5-150.5-150.5-62.5-150.5 62.5-62.5 150.5 62.5 150.5 150.5 62.5z" />
<glyph unicode="&#xe018;" glyph-name="pause" d="M299 362.333h85v-298h-85v298zM128 64.333v298h85v-298h-85z" />
<glyph unicode="&#xe019;" glyph-name="pause_circle_filled" d="M320 128.333v170h-43v-170h43zM235 128.333v170h-43v-170h43zM256 426.333q88 0 150.5-62.5t62.5-150.5-62.5-150.5-150.5-62.5-150.5 62.5-62.5 150.5 62.5 150.5 150.5 62.5z" />
<glyph unicode="&#xe01a;" glyph-name="pause_circle_outline" d="M277 128.333v170h43v-170h-43zM256 42.333q70 0 120.5 50.5t50.5 120.5-50.5 120.5-120.5 50.5-120.5-50.5-50.5-120.5 50.5-120.5 120.5-50.5zM256 426.333q88 0 150.5-62.5t62.5-150.5-62.5-150.5-150.5-62.5-150.5 62.5-62.5 150.5 62.5 150.5 150.5 62.5zM192 128.333v170h43v-170h-43z" />
<glyph unicode="&#xe01b;" glyph-name="play_arrow" d="M171 362.333l234-149-234-149v298z" />
<glyph unicode="&#xe01c;" glyph-name="play_circle_filled" d="M213 117.333l128 96-128 96v-192zM256 426.333q88 0 150.5-62.5t62.5-150.5-62.5-150.5-150.5-62.5-150.5 62.5-62.5 150.5 62.5 150.5 150.5 62.5z" />
<glyph unicode="&#xe01d;" glyph-name="play_circle_outline" d="M256 42.333q70 0 120.5 50.5t50.5 120.5-50.5 120.5-120.5 50.5-120.5-50.5-50.5-120.5 50.5-120.5 120.5-50.5zM256 426.333q88 0 150.5-62.5t62.5-150.5-62.5-150.5-150.5-62.5-150.5 62.5-62.5 150.5 62.5 150.5 150.5 62.5zM213 117.333v192l128-96z" />
<glyph unicode="&#xe01e;" glyph-name="playlist_add" d="M43 128.333v42h170v-42h-170zM384 170.333h85v-42h-85v-86h-43v86h-85v42h85v86h43v-86zM299 341.333v-43h-256v43h256zM299 256.333v-43h-256v43h256z" />
<glyph unicode="&#xe01f;" glyph-name="queue" d="M405 234.333v43h-85v85h-43v-85h-85v-43h85v-85h43v85h85zM427 426.333q17 0 29.5-12.5t12.5-29.5v-256q0-17-12.5-30t-29.5-13h-256q-17 0-30 13t-13 30v256q0 17 13 29.5t30 12.5h256zM85 341.333v-299h299v-42h-299q-17 0-29.5 12.5t-12.5 29.5v299h42z" />
<glyph unicode="&#xe020;" glyph-name="queue_music" d="M363 341.333h106v-43h-64v-192q0-26-19-45t-45-19-45 19-19 45 19 45 45 19q8 0 22-4v175zM64 128.333v42h171v-42h-171zM320 256.333v-43h-256v43h256zM320 341.333v-43h-256v43h256z" />
<glyph unicode="&#xe021;" glyph-name="radio" d="M427 213.333v85h-342v-85h256v43h43v-43h43zM149 42.333q26 0 45 19t19 45-19 45-45 19-45-19-19-45 19-45 45-19zM69 338.333l270 110 14-36-176-71h250q18 0 30-12.5t12-30.5v-256q0-17-12-29.5t-30-12.5h-342q-18 0-30 12.5t-12 29.5v256q0 30 26 40z" />
<glyph unicode="&#xe022;" glyph-name="recent_actors" d="M267 106.333v16q0 22-33 35t-63 13-63-13-33-35v-16h192zM171 304.333q-19 0-33.5-14.5t-14.5-33.5 14.5-33.5 33.5-14.5 33.5 14.5 14.5 33.5-14.5 33.5-33.5 14.5zM299 362.333q9 0 15-6t6-15v-256q0-9-6-15t-15-6h-256q-9 0-15.5 6t-6.5 15v256q0 9 6.5 15t15.5 6h256zM363 64.333v298h42v-298h-42zM448 362.333h43v-298h-43v298z" />
<glyph unicode="&#xe023;" glyph-name="repeat" d="M363 106.333v86h42v-128h-256v-64l-85 85 85 85v-64h214zM149 320.333v-86h-42v128h256v64l85-85-85-85v64h-214z" />
<glyph unicode="&#xe024;" glyph-name="repeat_one" d="M277 149.333h-32v85h-32v22l43 21h21v-128zM363 106.333v86h42v-128h-256v-64l-85 85 85 85v-64h214zM149 320.333v-86h-42v128h256v64l85-85-85-85v64h-214z" />
<glyph unicode="&#xe025;" glyph-name="replay" d="M256 362.333q71 0 121-50t50-120q0-71-50.5-121t-120.5-50-120.5 50-50.5 121h43q0-53 37.5-90.5t90.5-37.5 90.5 37.5 37.5 90.5-37.5 90.5-90.5 37.5v-86l-107 107 107 107v-86z" />
<glyph unicode="&#xe026;" glyph-name="shuffle" d="M316 183.333l67-67 44 44v-118h-118l44 44-67 67zM309 384.333h118v-118l-44 44-268-268-30 30 268 268zM226 273.333l-30-30-111 111 30 30z" />
<glyph unicode="&#xe027;" glyph-name="skip_next" d="M341 341.333h43v-256h-43v256zM128 85.333v256l181-128z" />
<glyph unicode="&#xe028;" glyph-name="skip_previous" d="M203 213.333l181 128v-256zM128 341.333h43v-256h-43v256z" />
<glyph unicode="&#xe029;" glyph-name="snooze" d="M192 234.333v43h128v-38l-77-90h77v-43h-128v39l77 89h-77zM256 42.333q62 0 105.5 44t43.5 106-43.5 105.5-105.5 43.5-105.5-43.5-43.5-105.5 43.5-106 105.5-44zM256 384.333q80 0 136-56.5t56-135.5-56-135.5-136-56.5-136 56.5-56 135.5 56 135.5 136 56.5zM469 347.333l-27-33-98 83 27 32zM168 397.333l-98-82-27 32 98 82z" />
<glyph unicode="&#xe02a;" glyph-name="stop" d="M128 341.333h256v-256h-256v256z" />
<glyph unicode="&#xe02b;" glyph-name="subtitles" d="M427 170.333v43h-214v-43h214zM427 85.333v43h-86v-43h86zM299 85.333v43h-214v-43h214zM85 213.333v-43h86v43h-86zM427 384.333q17 0 29.5-13t12.5-30v-256q0-17-12.5-30t-29.5-13h-342q-17 0-29.5 13t-12.5 30v256q0 17 12.5 30t29.5 13h342z" />
<glyph unicode="&#xe02c;" glyph-name="surround_sound" d="M256 256.333q17 0 30-13t13-30-13-30-30-13-30 13-13 30 13 30 30 13zM377 92.333q50 50 50 121t-50 121l-31-31q38-38 38-90 0-54-37-91zM256 128.333q35 0 60 25t25 60-25 60-60 25-60-25-25-60 25-60 60-25zM166 123.333q-38 38-38 90 0 54 37 91l-30 30q-50-50-50-121t50-121zM427 384.333q17 0 29.5-13t12.5-30v-256q0-17-12.5-30t-29.5-13h-342q-17 0-29.5 13t-12.5 30v256q0 17 12.5 30t29.5 13h342z" />
<glyph unicode="&#xe02d;" glyph-name="video_collection" d="M256 160.333l128 96-128 96v-192zM427 426.333q17 0 29.5-12.5t12.5-29.5v-256q0-17-12.5-30t-29.5-13h-256q-17 0-30 13t-13 30v256q0 17 13 29.5t30 12.5h256zM85 341.333v-299h299v-42h-299q-17 0-29.5 12.5t-12.5 29.5v299h42z" />
<glyph unicode="&#xe02e;" glyph-name="videocam" d="M363 245.333l85 85v-234l-85 85v-75q0-9-6.5-15t-15.5-6h-256q-9 0-15 6t-6 15v214q0 9 6 15t15 6h256q9 0 15.5-6t6.5-15v-75z" />
<glyph unicode="&#xe02f;" glyph-name="videocam_off" d="M70 426.333l378-378-27-27-68 68q-6-4-12-4h-256q-9 0-15 6t-6 15v214q0 9 6 15t15 6h16l-58 58zM448 330.333v-228l-239 239h132q9 0 15.5-6t6.5-15v-75z" />
<glyph unicode="&#xe030;" glyph-name="volume_down" d="M107 277.333h85l107 107v-342l-107 107h-85v128zM395 213.333q0-59-54-86v172q54-27 54-86z" />
<glyph unicode="&#xe031;" glyph-name="volume_mute" d="M149 277.333h86l106 107v-342l-106 107h-86v128z" />
<glyph unicode="&#xe032;" glyph-name="volume_off" d="M256 384.333v-90l-45 45zM91 405.333l357-357-27-27-44 44q-37-29-78-39v44q25 7 48 25l-91 91v-144l-107 107h-85v128h101l-101 101zM405 213.333q0 51-29.5 90t-76.5 53v44q65-14 107-66.5t42-120.5q0-48-22-89l-32 33q11 27 11 56zM352 213.333q0-9-1-13l-52 52v47q53-26 53-86z" />
<glyph unicode="&#xe033;" glyph-name="volume_up" d="M299 400.333q65-14 107-66.5t42-120.5-42-120.5-107-66.5v44q47 14 76.5 53t29.5 90-29.5 90-76.5 53v44zM352 213.333q0-60-53-86v172q53-26 53-86zM64 277.333h85l107 107v-342l-107 107h-85v128z" />
<glyph unicode="&#xe034;" glyph-name="web" d="M427 85.333v192h-86v-192h86zM320 192.333v85h-235v-85h235zM320 85.333v85h-235v-85h235zM427 384.333q17 0 29.5-13t12.5-30v-256q0-17-12.5-30t-29.5-13h-342q-17 0-29.5 13t-12.5 30v256q0 17 12.5 30t29.5 13h342z" />
<glyph unicode="&#xe035;" glyph-name="hd" d="M309 181.333v64h43v-64h-43zM277 277.333v-128h86q9 0 15 6t6 15v86q0 9-6 15t-15 6h-86zM235 149.333v128h-32v-53h-43v53h-32v-128h32v43h43v-43h32zM405 405.333q17 0 30-13t13-30v-298q0-17-13-30t-30-13h-298q-18 0-30.5 13t-12.5 30v298q0 17 12.5 30t30.5 13h298z" />
<glyph unicode="&#xe036;" glyph-name="sort_by_alpha" d="M336 125.333h130v-34h-182v27l126 183h-125v34h177v-27zM106 178.333h83l-42 111zM130 335.333h35l96-244h-39l-20 52h-109l-20-52h-39zM219 56.333h99l-50-50zM319 370.333h-101l50 50z" />
<glyph unicode="&#xe037;" glyph-name="airplay" d="M448 405.333q17 0 30-13t13-30v-256q0-17-13-29.5t-30-12.5h-85v42h85v256h-384v-256h85v-42h-85q-17 0-30 12.5t-13 29.5v256q0 17 13 30t30 13h384zM128 0.333l128 128 128-128h-256z" />
<glyph unicode="&#xe038;" glyph-name="forward_10" d="M282 145.333q0-7 10-7 5 0 7 2l4 5q2 4 2 6v43q-2 4-2 6t-4.5 4.5-6.5 2.5q-3 0-6-3l-4-4q-3-4-3-6v-43q3-4 3-6zM322 166.333q0-13-2-17l-6-13q-7-6-11-6-2 0-6.5-1t-6.5-1q-9 0-13 2-2 1-5 3t-5 3q-9 5-9 30v15q0 13 2 17l7 13q6 6 10 6 2 0 6.5 1t6.5 1q9 0 13-2 2-1 5.5-3t5.5-3 6-13q2-6 2-17v-15zM233 128.333h-20v70l-21-6v15l38 12h3v-91zM85 192.333q0 70 50 120t121 50v86l107-107-107-107v86q-52 0-90-37.5t-38-90.5 38-90.5 90-37.5 90 37.5 38 90.5h43q0-71-50.5-121t-120.5-50-120.5 50-50.5 121z" />
<glyph unicode="&#xe039;" glyph-name="forward_30" d="M85 192.333q0 70 50 120t121 50v86l107-107-107-107v86q-52 0-90-37.5t-38-90.5 38-90.5 90-37.5 90 37.5 38 90.5h43q0-71-50.5-121t-120.5-50-120.5 50-50.5 121zM284 145.333q0-7 10-7 5 0 7 2l4 5q2 4 2 6v43q-2 4-2 6t-4.5 4.5-6.5 2.5q-3 0-6-3l-4-4q-2-4-2-6v-43q2-4 2-6zM326 166.333q0-13-2-17l-6-13q-7-6-11-6-2 0-6.5-1t-6.5-1q-7 0-23 8-2 1-6 13-3 9-3 17v15q0 11 3 17l6 13q7 6 11 6 2 0 6 1t6 1q9 0 13-2 2-1 5.5-3t5.5-3 6-13q2-6 2-17v-15zM213 181.333q15 0 15 13v4q-2 2-2 4t-4 2h-11q-2-2-4-2t-2-4v-4h-22q0 8 5.5 15.5t12.5 7.5q1 0 5 1t5 1q12 0 24-6 8-4 8-19v-7q-2-4-2-6 0-4-4-4-2 0-7-5 9-5 11-8 4-8 4-13 0-9-2-11-1-1-3-4t-3-4q-4-4-11-4-2 0-6.5-1t-6.5-1q-8 0-10 2-1 1-5 2t-6 2q-9 5-9 21h18v-4q2-2 2-4t4-2h11q2 2 4 2t2 4v11q-2 2-2 4t-4 2h-13v15h8z" />
<glyph unicode="&#xe03a;" glyph-name="forward_5" d="M250 179.333q-7-3-7-4l-2-3h-13l5 47h51v-15h-37l-2-19q2 0 2 2 0 1 1.5 1.5t1.5 1.5h8q8 0 11-3 1-1 4-3t4-3q9-9 9-23 0-9-2-11-1-1-3-5t-4-6q-8-8-23-8-9 0-11 2-1 1-4.5 2t-5.5 2q-9 5-9 19h17q0-10 13-10 4 0 6 2l5 4q2 4 2 6v13l-2 4-5 5q-4 2-6 2h-4zM85 192.333q0 70 50 120t121 50v86l107-107-107-107v86q-52 0-90-37.5t-38-90.5 38-90.5 90-37.5 90 37.5 38 90.5h43q0-71-50.5-121t-120.5-50-120.5 50-50.5 121z" />
<glyph unicode="&#xe03b;" glyph-name="replay_10" d="M282 145.333q0-7 10-7 5 0 7 2l4 5q2 4 2 6v43q-2 4-2 6t-4.5 4.5-6.5 2.5q-3 0-6-3l-4-4q-3-4-3-6v-43q3-4 3-6zM324 166.333q0-13-2-17l-6-13q-7-6-11-6-2 0-6.5-1t-6.5-1q-9 0-13 2-2 1-5 3t-5 3q-9 5-9 30v15q0 13 2 17l7 13q6 6 10 6 2 0 6.5 1t6.5 1q9 0 13-2 2-1 5.5-3t5.5-3 6-13q2-6 2-17v-15zM233 128.333h-20v70l-21-6v15l38 12h3v-91zM256 362.333q71 0 121-50t50-120q0-71-50.5-121t-120.5-50-120.5 50-50.5 121h43q0-53 38-90.5t90-37.5 90 37.5 38 90.5-38 90.5-90 37.5v-86l-107 107 107 107v-86z" />
<glyph unicode="&#xe03c;" glyph-name="replay_30" d="M286 145.333q0-7 11-7 4 0 6 2l4 5q2 4 2 6v43q0 1-1 3t-1 3q0 2-4 4.5t-6 2.5q-4 0-7-3l-4-4q-2-4-2-6v-43q2-4 2-6zM326 166.333q0-13-2-17l-6-13q-7-6-11-6-2 0-6.5-1t-6.5-1q-7 0-23 8-2 1-6 13-3 9-3 17v15q0 11 3 17l6 13q7 6 11 6 2 0 6 1t6 1q9 0 13-2 2-1 5.5-3t5.5-3 6-13q2-6 2-17v-15zM213 181.333q15 0 15 13v4q-2 2-2 4t-4 2h-11q-2-2-4-2t-2-4v-4h-22q0 8 5.5 15.5t12.5 7.5q1 0 5 1t5 1q12 0 24-6 8-4 8-19v-7q-2-4-2-6 0-4-4-4-2 0-7-5 9-5 11-8 4-8 4-13 0-9-2-11-1-1-3-4t-3-4q-4-4-11-4-2 0-6.5-1t-6.5-1q-8 0-10 2-1 1-5 2t-6 2q-9 5-9 21h18v-4q2-2 2-4t4-2h11q2 2 4 2t2 4v11q-2 2-2 4t-4 2h-13v15h8zM256 362.333q71 0 121-50t50-120q0-71-50.5-121t-120.5-50-120.5 50-50.5 121h43q0-53 38-90.5t90-37.5 90 37.5 38 90.5-38 90.5-90 37.5v-86l-107 107 107 107v-86z" />
<glyph unicode="&#xe03d;" glyph-name="replay_5" d="M252 179.333q-7-3-7-4l-2-3h-15l5 47h51v-15h-37l-2-19q2 0 2 2 0 1 1.5 1.5t1.5 1.5h8q8 0 11-3 1-1 4-3t4-3q9-9 9-23 0-9-2-11-1-1-3-5t-4-6-4.5-3.5-3.5-2.5q-2-2-13-2-9 0-11 2-1 1-4.5 2t-5.5 2q-9 5-9 19h17q0-10 13-10 4 0 6 2l5 4q2 4 2 6v13l-2 4-5 5q-4 2-6 2h-4zM256 362.333q71 0 121-50t50-120q0-71-50.5-121t-120.5-50-120.5 50-50.5 121h43q0-53 38-90.5t90-37.5 90 37.5 38 90.5-38 90.5-90 37.5v-86l-107 107 107 107v-86z" />
<glyph unicode="&#xe03e;" glyph-name="business" d="M384 149.333v-43h-43v43h43zM384 234.333v-42h-43v42h43zM427 64.333v213h-171v-43h43v-42h-43v-43h43v-43h-43v-42h171zM213 320.333v42h-42v-42h42zM213 234.333v43h-42v-43h42zM213 149.333v43h-42v-43h42zM213 64.333v42h-42v-42h42zM128 320.333v42h-43v-42h43zM128 234.333v43h-43v-43h43zM128 149.333v43h-43v-43h43zM128 64.333v42h-43v-42h43zM256 320.333h213v-299h-426v384h213v-85z" />
<glyph unicode="&#xe03f;" glyph-name="call" d="M141 239.333q48-93 141-141l47 47q10 10 22 5 36-12 76-12 9 0 15-6t6-15v-75q0-9-6-15t-15-6q-150 0-256.5 106.5t-106.5 256.5q0 9 6 15t15 6h75q9 0 15-6t6-15q0-40 12-76 4-13-5-22z" />
<glyph unicode="&#xe040;" glyph-name="call_end" d="M256 277.333q-52 0-98-15v-66q0-15-12-20-32-15-57-39-6-6-15-6t-15 6l-53 53q-6 6-6 15t6 15q105 100 250 100t250-100q6-6 6-15t-6-15l-53-53q-6-6-15-6t-15 6q-25 24-57 39-12 5-12 19v66q-50 16-98 16z" />
<glyph unicode="&#xe041;" glyph-name="call_made" d="M192 362.333h213v-213h-42v141l-248-248-30 30 248 248h-141v42z" />
<glyph unicode="&#xe042;" glyph-name="call_merge" d="M160 298.333l96 96 96-96h-75v-136l-128-128-30 30 116 115v119h-75zM363 34.333l-73 72 30 30 73-72z" />
<glyph unicode="&#xe043;" glyph-name="call_missed" d="M418 320.333l30-30-192-192-149 149v-98h-43v171h171v-43h-98l119-119z" />
<glyph unicode="&#xe044;" glyph-name="call_received" d="M427 354.333l-248-248h141v-42h-213v213h42v-141l248 248z" />
<glyph unicode="&#xe045;" glyph-name="call_split" d="M213 384.333l-49-49 113-113v-180h-42v162l-101 101-49-49v128h128zM299 384.333h128v-128l-49 49-62-62-30 30 62 62z" />
<glyph unicode="&#xe046;" glyph-name="chat" d="M384 298.333v43h-256v-43h256zM299 170.333v43h-171v-43h171zM128 277.333v-43h256v43h-256zM427 426.333q17 0 29.5-12.5t12.5-29.5v-256q0-17-12.5-30t-29.5-13h-299l-85-85v384q0 17 12.5 29.5t29.5 12.5h342z" />
<glyph unicode="&#xe047;" glyph-name="clear_all" d="M149 320.333h299v-43h-299v43zM64 106.333v43h299v-43h-299zM107 192.333v42h298v-42h-298z" />
<glyph unicode="&#xe048;" glyph-name="comment" d="M384 298.333v43h-256v-43h256zM384 234.333v43h-256v-43h256zM384 170.333v43h-256v-43h256zM469 384.333v-384l-85 85h-299q-17 0-29.5 13t-12.5 30v256q0 17 12.5 29.5t29.5 12.5h342q17 0 29.5-12.5t12.5-29.5z" />
<glyph unicode="&#xe049;" glyph-name="contacts" d="M363 106.333v32q0 24-36.5 39t-70.5 15-70.5-15-36.5-39v-32h214zM256 325.333q-20 0-34-14t-14-34 14-34 34-14 34 14 14 34-14 34-34 14zM427 384.333q17 0 29.5-13t12.5-30v-256q0-17-12.5-30t-29.5-13h-342q-17 0-29.5 13t-12.5 30v256q0 17 12.5 30t29.5 13h342zM85-42.667v43h342v-43h-342zM427 469.333v-43h-342v43h342z" />
<glyph unicode="&#xe04a;" glyph-name="dialer_sip" d="M427 138.333q9 0 15-6t6-15v-75q0-9-6-15t-15-6q-150 0-256.5 106.5t-106.5 256.5q0 9 6 15t15 6h75q9 0 15-6t6-15q0-40 12-76 4-13-5-22l-47-47q47-92 141-141l47 47q9 9 22 5 36-12 76-12zM427 362.333v22h-22v-22h22zM384 405.333h64v-64h-43v-43h-21v107zM320 362.333v-64h-64v22h43v21h-43v64h64v-21h-43v-22h43zM363 405.333v-107h-22v107h22z" />
<glyph unicode="&#xe04b;" glyph-name="dialpad" d="M256 448.333q17 0 30-13t13-30-13-30-30-13-30 13-13 30 13 30 30 13zM256 320.333q17 0 30-13t13-30-13-30-30-13-30 13-13 30 13 30 30 13zM384 320.333q17 0 30-13t13-30-13-30-30-13-30 13-13 30 13 30 30 13zM384 192.333q17 0 30-13t13-30-13-30-30-13-30 13-13 30 13 30 30 13zM256 192.333q17 0 30-13t13-30-13-30-30-13-30 13-13 30 13 30 30 13zM384 362.333q-17 0-30 13t-13 30 13 30 30 13 30-13 13-30-13-30-30-13zM128 192.333q17 0 30-13t13-30-13-30-30-13-30 13-13 30 13 30 30 13zM128 320.333q17 0 30-13t13-30-13-30-30-13-30 13-13 30 13 30 30 13zM128 448.333q17 0 30-13t13-30-13-30-30-13-30 13-13 30 13 30 30 13zM256 64.333q17 0 30-13t13-30-13-30-30-13-30 13-13 30 13 30 30 13z" />
<glyph unicode="&#xe04c;" glyph-name="email" d="M427 298.333v43l-171-107-171 107v-43l171-106zM427 384.333q17 0 29.5-13t12.5-30v-256q0-17-12.5-30t-29.5-13h-342q-17 0-29.5 13t-12.5 30v256q0 17 12.5 30t29.5 13h342z" />
<glyph unicode="&#xe04d;" glyph-name="forum" d="M363 213.333q0-9-6.5-15t-15.5-6h-213l-85-86v299q0 9 6 15t15 6h277q9 0 15.5-6t6.5-15v-192zM448 341.333q9 0 15-6t6-15v-320l-85 85h-235q-9 0-15 6t-6 15v43h277v192h43z" />
<glyph unicode="&#xe04e;" glyph-name="import_export" d="M341 106.333h64l-85-85-85 85h64v150h42v-150zM192 405.333l85-85h-64v-150h-42v150h-64z" />
<glyph unicode="&#xe04f;" glyph-name="invert_colors_off" d="M256 360.333l-49-48-30 30 79 79 121-121q38-38 47-91.5t-13-100.5l-155 154v98zM256 51.333v103l-102 102q-26-34-26-77 0-52 38-90t90-38zM441 24.333l7-8-27-27-58 58q-47-38-107-38-71 0-121 50-46 47-49.5 112.5t37.5 115.5l-59 59 27 27q299-299 350-349z" />
<glyph unicode="&#xe050;" glyph-name="live_help" d="M321 250.333q20 20 20 48 0 35-25 60.5t-60 25.5-60-25.5-25-60.5h42q0 17 13 30t30 13 30-13 13-30-13-30l-26-27q-25-27-25-60v-11h42q0 34 25 61zM277 85.333v43h-42v-43h42zM405 426.333q17 0 30-12.5t13-29.5v-299q0-17-13-30t-30-13h-85l-64-64-64 64h-85q-18 0-30.5 13t-12.5 30v299q0 17 12.5 29.5t30.5 12.5h298z" />
<glyph unicode="&#xe051;" glyph-name="location_off" d="M250 224.333q109-108 177-176l-27-27-72 71q-16-24-34-47t-28-34l-10-11q-6 7-16 18.5t-36 46-45.5 67-35.5 73.5-16 72q0 11 4 33l-68 68 27 27 178-178zM256 330.333q-23 0-39-18l-69 68q44 46 108 46 62 0 105.5-43.5t43.5-105.5q0-48-36-117l-77 78q17 15 17 39 0 22-15.5 37.5t-37.5 15.5z" />
<glyph unicode="&#xe052;" glyph-name="location_on" d="M256 224.333q22 0 37.5 15.5t15.5 37.5-15.5 37.5-37.5 15.5-37.5-15.5-15.5-37.5 15.5-37.5 37.5-15.5zM256 426.333q62 0 105.5-43.5t43.5-105.5q0-31-15.5-71t-37.5-75-43.5-65.5-36.5-48.5l-16-17q-6 7-16 18.5t-36 46-45.5 67-35.5 73.5-16 72q0 62 43.5 105.5t105.5 43.5z" />
<glyph unicode="&#xe053;" glyph-name="message" d="M384 298.333v43h-256v-43h256zM384 234.333v43h-256v-43h256zM384 170.333v43h-256v-43h256zM427 426.333q17 0 29.5-12.5t12.5-29.5v-256q0-17-12.5-30t-29.5-13h-299l-85-85v384q0 17 12.5 29.5t29.5 12.5h342z" />
<glyph unicode="&#xe054;" glyph-name="chat_bubble" d="M427 426.333q17 0 29.5-12.5t12.5-29.5v-256q0-17-12.5-30t-29.5-13h-299l-85-85v384q0 17 12.5 29.5t29.5 12.5h342z" />
<glyph unicode="&#xe055;" glyph-name="chat_bubble_outline" d="M427 128.333v256h-342v-299l43 43h299zM427 426.333q17 0 29.5-12.5t12.5-29.5v-256q0-17-12.5-30t-29.5-13h-299l-85-85v384q0 17 12.5 29.5t29.5 12.5h342z" />
<glyph unicode="&#xe056;" glyph-name="no_sim" d="M78 386.333l373-372-28-28-40 41q-12-6-20-6h-214q-17 0-29.5 13t-12.5 30v239l-56 56zM405 362.333v-249l-242 242 50 50h150q17 0 29.5-13t12.5-30z" />
<glyph unicode="&#xe057;" glyph-name="phone" d="M141 239.333q48-93 141-141l47 47q10 10 22 5 36-12 76-12 9 0 15-6t6-15v-75q0-9-6-15t-15-6q-150 0-256.5 106.5t-106.5 256.5q0 9 6 15t15 6h75q9 0 15-6t6-15q0-40 12-76 4-13-5-22z" />
<glyph unicode="&#xe058;" glyph-name="portable_wifi_off" d="M70 416.333l21-22 357-357-27-27-160 161h-1l-4-1q-17 0-30 13t-13 30l1 4-34 34q-9-18-9-38 0-49 42-74l-21-37q-29 17-46.5 46.5t-17.5 64.5q0 38 20 69l-30 31q-33-46-33-100 0-46 23-85.5t62-62.5l-21-37q-49 28-77.5 77.5t-28.5 107.5q0 74 44 131l-44 45zM256 384.333q-43 0-80-20l-31 31q50 31 111 31 88 0 150.5-62.5t62.5-150.5q0-61-31-111l-32 31q21 39 21 80 0 70-50.5 120.5t-120.5 50.5zM375 165.333l-35 35q1 4 1 13 0 35-25 60t-60 25q-9 0-13-1l-35 35q22 9 48 9 53 0 90.5-37.5t37.5-90.5q0-26-9-48z" />
<glyph unicode="&#xe059;" glyph-name="contact_phone" d="M381 170.333q-8 21-8 43t8 43h35l32 42-42 43q-44-33-59-85-6-21-6-43t6-43q15-52 59-85l42 43-32 42h-35zM299 85.333v21q0 29-44 47.5t-84 18.5-84-18.5-44-47.5v-21h256zM171 341.333q-26 0-45-19t-19-45 19-45 45-19 45 19 19 45-19 45-45 19zM469 405.333q17 0 30-13t13-30v-298q0-17-13-30t-30-13h-426q-17 0-30 13t-13 30v298q0 17 13 30t30 13h426z" />
<glyph unicode="&#xe05a;" glyph-name="ring_volume" d="M137 260.333q-74 74-76 75l30 31 76-76zM277 426.333v-106h-42v106h42zM451 335.333l-76-75-30 30 76 76zM506 113.333q6-6 6-15t-6-15l-53-53q-6-6-15-6t-15 6q-28 26-57 40-12 5-12 19v66q-46 15-98 15t-98-15v-66q0-15-12-20-32-15-57-39-6-6-15-6t-15 6l-53 53q-6 6-6 15t6 15q105 100 250 100t250-100z" />
<glyph unicode="&#xe05b;" glyph-name="speaker_phone" d="M320 42.333v171h-128v-171h128zM317 255.333q10 0 17-7t7-17v-207q0-10-7-17t-17-7h-122q-10 0-17 7t-7 17v207q0 10 7 17.5t17 7.5zM256 448.333q96 0 165-69l-30-30q-56 56-135 56t-135-56l-30 30q69 69 165 69zM149 318.333q44 44 107 44t107-44l-31-30q-31 31-76 31t-76-31z" />
<glyph unicode="&#xe05c;" glyph-name="stay_current_landscape" d="M405 320.333h-298v-214h298v214zM22 320.333q0 17 12.5 29.5t29.5 12.5h384q17 0 30-12.5t13-29.5v-214q0-17-13-29.5t-30-12.5h-384q-17 0-30 12.5t-13 29.5z" />
<glyph unicode="&#xe05d;" glyph-name="stay_current_portrait" d="M363 64.333v298h-214v-298h214zM363 447.333q17 0 29.5-12.5t12.5-29.5v-384q0-17-12.5-30t-29.5-13h-214q-17 0-29.5 13t-12.5 30v384q0 17 12.5 30t29.5 13z" />
<glyph unicode="&#xe05e;" glyph-name="stay_primary_landscape" d="M405 320.333h-298v-214h298v214zM22 320.333q0 17 12.5 29.5t29.5 12.5h384q17 0 30-12.5t13-29.5v-214q0-17-13-29.5t-30-12.5h-384q-17 0-30 12.5t-13 29.5z" />
<glyph unicode="&#xe05f;" glyph-name="stay_primary_portrait" d="M363 64.333v298h-214v-298h214zM363 447.333q17 0 29.5-12.5t12.5-29.5v-384q0-17-12.5-30t-29.5-13h-214q-17 0-29.5 13t-12.5 30v384q0 17 12.5 30t29.5 13z" />
<glyph unicode="&#xe060;" glyph-name="swap_calls" d="M384 384.333l85-86h-64v-149q0-35-25-60t-60-25-60 25-25 60v149q0 17-13 30t-30 13-30-13-13-30v-149h64l-85-85-85 85h64v149q0 35 25 60.5t60 25.5 60-25.5 25-60.5v-149q0-17 13-30t30-13 30 13 13 30v149h-64z" />
<glyph unicode="&#xe061;" glyph-name="textsms" d="M363 234.333v43h-43v-43h43zM277 234.333v43h-42v-43h42zM192 234.333v43h-43v-43h43zM427 426.333q17 0 29.5-12.5t12.5-29.5v-256q0-17-12.5-30t-29.5-13h-299l-85-85v384q0 17 12.5 29.5t29.5 12.5h342z" />
<glyph unicode="&#xe062;" glyph-name="voicemail" d="M395 149.333q31 0 52.5 22t21.5 53-21.5 52.5-52.5 21.5-53-21.5-22-52.5 22-53 53-22zM117 149.333q31 0 53 22t22 53-22 52.5-53 21.5-52.5-21.5-21.5-52.5 21.5-53 52.5-22zM395 341.333q49 0 83-34t34-83-34-83.5-83-34.5h-278q-49 0-83 34.5t-34 83.5 34 83 83 34 83.5-34 34.5-83q0-43-27-75h96q-27 32-27 75 0 49 34.5 83t83.5 34z" />
<glyph unicode="&#xe063;" glyph-name="vpn_key" d="M149 170.333q17 0 30 13t13 30-13 30-30 13-29.5-13-12.5-30 12.5-30 29.5-13zM270 256.333h221v-86h-43v-85h-85v85h-93q-13-38-46-61.5t-75-23.5q-53 0-90.5 37.5t-37.5 90.5 37.5 90.5 90.5 37.5q42 0 75-23.5t46-61.5z" />
<glyph unicode="&#xe064;" glyph-name="phonelink_erase" d="M405 448.333q17 0 30-13t13-30v-384q0-17-13-30t-30-13h-213q-17 0-30 13t-13 30v64h43v-43h213v342h-213v-43h-43v64q0 17 13 30t30 13h213zM277 294.333l-85-85 85-86-21-21-85 85-86-85-21 21 85 86-85 85 21 21 86-85 85 85z" />
<glyph unicode="&#xe065;" glyph-name="phonelink_lock" d="M203 234.333v32q0 12-9.5 20t-22.5 8-22.5-8-9.5-20v-32h64zM230 234.333q10 0 18-8t8-19v-75q0-10-8.5-18t-19.5-8h-117q-10 0-18 8.5t-8 19.5v75q0 10 8 17.5t18 7.5v32q0 22 18.5 38t41.5 16 41-16 18-38v-32zM405 448.333q17 0 30-13t13-30v-384q0-17-13-30t-30-13h-213q-17 0-30 13t-13 30v64h43v-43h213v342h-213v-43h-43v64q0 17 13 30t30 13h213z" />
<glyph unicode="&#xe066;" glyph-name="phonelink_ring" d="M299 42.333v342h-214v-342h214zM299 448.333q17 0 29.5-13t12.5-30v-384q0-17-12.5-30t-29.5-13h-214q-17 0-29.5 13t-12.5 30v384q0 17 12.5 30t29.5 13h214zM384 260.333q20-21 20-47t-20-45l-21 22q18 25 0 49zM429 305.333q40-38 40-91.5t-40-90.5l-22 22q29 31 29 70.5t-29 67.5z" />
<glyph unicode="&#xe067;" glyph-name="phonelink_setup" d="M405 448.333q17 0 30-13t13-30v-384q0-17-13-30t-30-13h-213q-17 0-30 13t-13 30v64h43v-43h213v342h-213v-43h-43v64q0 17 13 30t30 13h213zM171 170.333q17 0 29.5 13t12.5 30-12.5 30-29.5 13-30-13-13-30 13-30 30-13zM252 202.333l23-19q4-4 2-6l-21-37q-2-2-6-2l-28 11q-14-9-19-11l-5-27q-5-5-6-5h-43q-2 0-3.5 2t-0.5 3l-4 27q-5 2-19 11l-30-9q-2-2-7 3l-21 36q0 4 2 8l24 17v22l-24 17q-4 4-2 6l21 37q2 2 7 2l27-11q13 9 20 11l4 27q5 5 6 5h43q6 0 6-5l5-27q5-2 19-11l28 9q2 1 6-3l21-36q0-4-2-6l-23-17v-22z" />
<glyph unicode="&#xe068;" glyph-name="present_to_all" d="M213 213.333h-42l85 85 85-85h-42v-85h-86v85zM448 63.333v300h-384v-300h384zM448 405.333q18 0 30.5-12.5t12.5-30.5v-298q0-18-12.5-30.5t-30.5-12.5h-384q-18 0-30.5 12.5t-12.5 30.5v298q0 18 12.5 30.5t30.5 12.5h384z" />
<glyph unicode="&#xe069;" glyph-name="add" d="M405 192.333h-128v-128h-42v128h-128v42h128v128h42v-128h128v-42z" />
<glyph unicode="&#xe06a;" glyph-name="add_box" d="M363 192.333v42h-86v86h-42v-86h-86v-42h86v-86h42v86h86zM405 405.333q17 0 30-13t13-30v-298q0-17-13-30t-30-13h-298q-18 0-30.5 13t-12.5 30v298q0 17 12.5 30t30.5 13h298z" />
<glyph unicode="&#xe06b;" glyph-name="add_circle" d="M363 192.333v42h-86v86h-42v-86h-86v-42h86v-86h42v86h86zM256 426.333q88 0 150.5-62.5t62.5-150.5-62.5-150.5-150.5-62.5-150.5 62.5-62.5 150.5 62.5 150.5 150.5 62.5z" />
<glyph unicode="&#xe06c;" glyph-name="add_circle_outline" d="M256 42.333q70 0 120.5 50.5t50.5 120.5-50.5 120.5-120.5 50.5-120.5-50.5-50.5-120.5 50.5-120.5 120.5-50.5zM256 426.333q88 0 150.5-62.5t62.5-150.5-62.5-150.5-150.5-62.5-150.5 62.5-62.5 150.5 62.5 150.5 150.5 62.5zM277 320.333v-86h86v-42h-86v-86h-42v86h-86v42h86v86h42z" />
<glyph unicode="&#xe06d;" glyph-name="archive" d="M109 362.333h294l-20 22h-256zM256 96.333l117 117h-74v43h-86v-43h-74zM438 357.333q10-12 10-27v-266q0-17-13-30t-30-13h-298q-17 0-30 13t-13 30v266q0 15 10 27l29 36q10 12 25 12h256q15 0 25-12z" />
<glyph unicode="&#xe06e;" glyph-name="backspace" d="M405 136.333l-76 77 76 77-30 30-76-77-77 77-30-30 77-77-77-77 30-30 77 77 76-77zM469 405.333q17 0 30-13t13-30v-298q0-17-13-30t-30-13h-320q-20 0-34 19l-115 173 115 173q14 19 34 19h320z" />
<glyph unicode="&#xe06f;" glyph-name="block" d="M256 42.333q70 0 120.5 50.5t50.5 120.5q0 60-36 105l-240-240q45-36 105-36zM85 213.333q0-60 36-105l240 240q-45 36-105 36-70 0-120.5-50.5t-50.5-120.5zM256 426.333q88 0 150.5-62.5t62.5-150.5-62.5-150.5-150.5-62.5-150.5 62.5-62.5 150.5 62.5 150.5 150.5 62.5z" />
<glyph unicode="&#xe070;" glyph-name="clear" d="M405 332.333l-119-119 119-119-30-30-119 119-119-119-30 30 119 119-119 119 30 30 119-119 119 119z" />
<glyph unicode="&#xe071;" glyph-name="content_copy" d="M405 21.333v299h-234v-299h234zM405 362.333q17 0 30-12.5t13-29.5v-299q0-17-13-30t-30-13h-234q-17 0-30 13t-13 30v299q0 17 13 29.5t30 12.5h234zM341 448.333v-43h-256v-299h-42v299q0 17 12.5 30t29.5 13h256z" />
<glyph unicode="&#xe072;" glyph-name="content_cut" d="M405 405.333h64v-21l-149-150-43 43zM256 202.333q11 0 11 11t-11 11-11-11 11-11zM128 42.333q17 0 30 12.5t13 30.5-13 30.5-30 12.5-30-12.5-13-30.5 13-30.5 30-12.5zM128 298.333q17 0 30 12.5t13 30.5-13 30.5-30 12.5-30-12.5-13-30.5 13-30.5 30-12.5zM206 306.333l263-264v-21h-64l-149 149-50-50q7-15 7-35 0-35-25-60t-60-25-60 25-25 60 25 60 60 25q20 0 35-7l50 50-50 50q-15-7-35-7-35 0-60 25t-25 60 25 60 60 25 60-25 25-60q0-20-7-35z" />
<glyph unicode="&#xe073;" glyph-name="content_paste" d="M405 42.333v342h-42v-64h-214v64h-42v-342h298zM256 426.333q-9 0-15-6t-6-15 6-15 15-6 15 6 6 15-6 15-15 6zM405 426.333q17 0 30-12.5t13-29.5v-342q0-17-13-29.5t-30-12.5h-298q-17 0-30 12.5t-13 29.5v342q0 17 13 29.5t30 12.5h89q7 19 23 31t37 12 37-12 23-31h89z" />
<glyph unicode="&#xe074;" glyph-name="create" d="M442 319.333l-39-39-80 80 39 39q6 6 15 6t15-6l50-50q6-6 6-15t-6-15zM64 101.333l236 236 80-80-236-236h-80v80z" />
<glyph unicode="&#xe075;" glyph-name="drafts" d="M256 192.333l176 110-176 103-176-103zM469 298.333v-213q0-17-12.5-30t-29.5-13h-342q-17 0-29.5 13t-12.5 30v213q0 25 20 37l193 113 193-113q20-12 20-37z" />
<glyph unicode="&#xe076;" glyph-name="filter_list" d="M128 192.333v42h256v-42h-256zM64 341.333h384v-43h-384v43zM213 85.333v43h86v-43h-86z" />
<glyph unicode="&#xe077;" glyph-name="flag" d="M307 341.333h120v-213h-150l-8 42h-120v-149h-42v363h192z" />
<glyph unicode="&#xe078;" glyph-name="forward" d="M256 298.333v86l171-171-171-171v86h-171v170h171z" />
<glyph unicode="&#xe079;" glyph-name="gesture" d="M296 73.333q14 0 28 18.5t18 56.5q-30-8-46-27t-16-32q0-7 5-11.5t11-4.5zM98 322.333l-37 36q10 12 18 20 27 27 58 27 19 0 36.5-15t17.5-46q0-30-28-70-28-39-39-75-6-17-3.5-29t10.5-12q9 0 24 18 22 22 49 58 48 60 105 60 42 0 62.5-27.5t23.5-61.5h53v-53h-52q-6-69-37-100t-64-31q-28 0-48 19.5t-20 46.5q0 33 30 69t85 46q-1 8-1.5 11t-3 9.5-6 9.5-10.5 5.5-17 2.5q-28 0-87-73-17-21-23.5-28.5t-18.5-17.5-23-13q-35-11-60 13t-25 60q0 15 5.5 33t14.5 35 17 30.5 15.5 24.5 8.5 12q17 28 6 32-7 3-36-26z" />
<glyph unicode="&#xe07a;" glyph-name="inbox" d="M341 256.333l-85-86-85 86h42v64h86v-64h42zM405 149.333v213h-299v-213h86q0-26 19-45t45-19 45 19 19 45h85zM405 405.333q17 0 30-13t13-30v-298q0-17-13-30t-30-13h-299q-17 0-29.5 13t-12.5 30v298q0 17 12.5 30t29.5 13h299z" />
<glyph unicode="&#xe07b;" glyph-name="link" d="M363 320.333q44 0 75-31.5t31-75.5-31-75.5-75-31.5h-86v41h86q27 0 46.5 19.5t19.5 46.5-19.5 46.5-46.5 19.5h-86v41h86zM171 192.333v42h170v-42h-170zM83 213.333q0-27 19.5-46.5t46.5-19.5h86v-41h-86q-44 0-75 31.5t-31 75.5 31 75.5 75 31.5h86v-41h-86q-27 0-46.5-19.5t-19.5-46.5z" />
<glyph unicode="&#xe07c;" glyph-name="mail" d="M427 298.333v43l-171-107-171 107v-43l171-106zM427 384.333q17 0 29.5-13t12.5-30v-256q0-17-12.5-30t-29.5-13h-342q-17 0-29.5 13t-12.5 30v256q0 17 12.5 30t29.5 13h342z" />
<glyph unicode="&#xe07d;" glyph-name="markunread" d="M427 298.333v43l-171-107-171 107v-43l171-106zM427 384.333q17 0 29.5-13t12.5-30v-256q0-17-12.5-30t-29.5-13h-342q-17 0-29.5 13t-12.5 30v256q0 17 12.5 30t29.5 13h342z" />
<glyph unicode="&#xe07e;" glyph-name="redo" d="M393 243.333l76 77v-192h-192l78 77q-48 40-110 40-56 0-100.5-32.5t-61.5-84.5l-50 16q22 68 80.5 111t131.5 43q85 0 148-55z" />
<glyph unicode="&#xe07f;" glyph-name="remove" d="M405 192.333h-298v42h298v-42z" />
<glyph unicode="&#xe080;" glyph-name="remove_circle" d="M363 192.333v42h-214v-42h214zM256 426.333q88 0 150.5-62.5t62.5-150.5-62.5-150.5-150.5-62.5-150.5 62.5-62.5 150.5 62.5 150.5 150.5 62.5z" />
<glyph unicode="&#xe081;" glyph-name="remove_circle_outline" d="M256 42.333q70 0 120.5 50.5t50.5 120.5-50.5 120.5-120.5 50.5-120.5-50.5-50.5-120.5 50.5-120.5 120.5-50.5zM256 426.333q88 0 150.5-62.5t62.5-150.5-62.5-150.5-150.5-62.5-150.5 62.5-62.5 150.5 62.5 150.5 150.5 62.5zM149 234.333h214v-42h-214v42z" />
<glyph unicode="&#xe082;" glyph-name="reply" d="M213 277.333q104-15 160.5-79.5t74.5-155.5q-77 109-235 109v-87l-149 149 149 149v-85z" />
<glyph unicode="&#xe083;" glyph-name="reply_all" d="M277 277.333q104-15 160.5-79.5t74.5-155.5q-77 109-235 109v-87l-149 149 149 149v-85zM149 298.333l-85-85 85-85v-64l-149 149 149 149v-64z" />
<glyph unicode="&#xe084;" glyph-name="report" d="M277 192.333v128h-42v-128h42zM256 100.333q11 0 19.5 8.5t8.5 19.5-8.5 19-19.5 8-19.5-8-8.5-19 8.5-19.5 19.5-8.5zM336 405.333l112-112v-160l-112-112h-160l-112 112v160l112 112h160z" />
<glyph unicode="&#xe085;" glyph-name="save" d="M320 277.333v85h-213v-85h213zM256 64.333q26 0 45 19t19 45-19 45-45 19-45-19-19-45 19-45 45-19zM363 405.333l85-85v-256q0-17-13-30t-30-13h-298q-18 0-30.5 13t-12.5 30v298q0 17 12.5 30t30.5 13h256z" />
<glyph unicode="&#xe086;" glyph-name="select_all" d="M192 277.333v-128h128v128h-128zM149 106.333v214h214v-214h-214zM320 362.333v43h43v-43h-43zM320 21.333v43h43v-43h-43zM405 106.333v43h43v-43h-43zM405 277.333v43h43v-43h-43zM405 21.333v43h43q0-17-13-30t-30-13zM405 192.333v42h43v-42h-43zM235 21.333v43h42v-43h-42zM192 405.333v-43h-43v43h43zM64 106.333v43h43v-43h-43zM107 21.333q-17 0-30 13t-13 30h43v-43zM405 405.333q17 0 30-13t13-30h-43v43zM277 405.333v-43h-42v43h42zM64 277.333v43h43v-43h-43zM149 21.333v43h43v-43h-43zM64 192.333v42h43v-42h-43zM64 362.333q0 17 13 30t30 13v-43h-43z" />
<glyph unicode="&#xe087;" glyph-name="send" d="M43 21.333v149l320 43-320 43v149l448-192z" />
<glyph unicode="&#xe088;" glyph-name="sort" d="M64 192.333v42h256v-42h-256zM64 341.333h384v-43h-384v43zM64 85.333v43h128v-43h-128z" />
<glyph unicode="&#xe089;" glyph-name="text_format" d="M256 341.333l-40-107h80zM203 196.333l-20-47h-44l101 235h32l101-235h-44l-20 47h-106zM107 106.333h298v-42h-298v42z" />
<glyph unicode="&#xe08a;" glyph-name="undo" d="M267 298.333q73 0 131-43t81-111l-50-16q-17 52-61.5 84.5t-100.5 32.5q-62 0-110-40l78-77h-192v192l76-77q63 55 148 55z" />
<glyph unicode="&#xe08b;" glyph-name="font_download" d="M340 74.333h45l-109 278h-40l-109-278h45l24 64h120zM427 426.333q17 0 29.5-12.5t12.5-29.5v-342q0-17-12.5-29.5t-29.5-12.5h-342q-17 0-29.5 12.5t-12.5 29.5v342q0 17 12.5 29.5t29.5 12.5h342zM212 181.333l44 118 44-118h-88z" />
<glyph unicode="&#xe08c;" glyph-name="access_alarm" d="M256 42.333q62 0 105.5 44t43.5 106-43.5 105.5-105.5 43.5-105.5-43.5-43.5-105.5 43.5-106 105.5-44zM256 384.333q80 0 136-56.5t56-135.5-56-135.5-136-56.5-136 56.5-56 135.5 56 135.5 136 56.5zM267 298.333v-112l85-50-16-26-101 60v128h32zM168 397.333l-98-82-27 32 98 82zM469 347.333l-27-33-98 83 27 32z" />
<glyph unicode="&#xe08d;" glyph-name="access_alarms" d="M256 42.333q62 0 105.5 44t43.5 106-43.5 105.5-105.5 43.5-105.5-43.5-43.5-105.5 43.5-106 105.5-44zM256 384.333q80 0 136-56t56-136-56-136-136-56-136 56-56 136 56 136 136 56zM267 298.333v-113l85-51-17-26-100 62v128h32zM169 396.333l-99-81-27 32 98 81zM469 347.333l-27-32-99 84 28 32z" />
<glyph unicode="&#xe08e;" glyph-name="access_time" d="M267 320.333v-112l96-57-16-27-112 68v128h32zM256 42.333q70 0 120.5 50.5t50.5 120.5-50.5 120.5-120.5 50.5-120.5-50.5-50.5-120.5 50.5-120.5 120.5-50.5zM256 426.333q88 0 150.5-62.5t62.5-150.5-62.5-150.5-150.5-62.5-150.5 62.5-62.5 150.5 62.5 150.5 150.5 62.5z" />
<glyph unicode="&#xe08f;" glyph-name="add_alarm" d="M277 277.333v-64h64v-43h-64v-64h-42v64h-64v43h64v64h42zM256 42.333q62 0 105.5 44t43.5 106-43.5 105.5-105.5 43.5-105.5-43.5-43.5-105.5 43.5-106 105.5-44zM256 384.333q80 0 136-56.5t56-135.5-56-135.5-136-56.5-136 56.5-56 135.5 56 135.5 136 56.5zM469 347.333l-27-33-98 83 27 32zM168 397.333l-98-82-27 32 98 82z" />
<glyph unicode="&#xe090;" glyph-name="airplanemode_inactive" d="M64 357.333l27 27 336-336-27-27-123 122v-79l43-32v-32l-75 21-74-21v32l42 32v117l-170-53v42l127 80zM277 277.333l171-107v-42l-68 21-167 167v78q0 13 9.5 22.5t22.5 9.5 22.5-9.5 9.5-22.5v-117z" />
<glyph unicode="&#xe091;" glyph-name="airplanemode_active" d="M448 128.333l-171 53v-117l43-32v-32l-75 21-74-21v32l42 32v117l-170-53v42l170 107v117q0 13 9.5 22.5t22.5 9.5 22.5-9.5 9.5-22.5v-117l171-107v-42z" />
<glyph unicode="&#xe092;" glyph-name="battery_alert" d="M277 170.333v107h-42v-107h42zM277 85.333v43h-42v-43h42zM334 384.333q12 0 20.5-8.5t8.5-20.5v-327q0-12-8.5-20t-20.5-8h-156q-12 0-20.5 8t-8.5 20v327q0 12 8.5 20.5t20.5 8.5h35v42h86v-42h35z" />
<glyph unicode="&#xe093;" glyph-name="battery_charging_full" d="M235 42.333l85 160h-43v118l-85-160h43v-118zM334 384.333q12 0 20.5-8.5t8.5-20.5v-327q0-12-8.5-20t-20.5-8h-156q-12 0-20.5 8t-8.5 20v327q0 12 8.5 20.5t20.5 8.5h35v42h86v-42h35z" />
<glyph unicode="&#xe094;" glyph-name="battery_full" d="M334 384.333q12 0 20.5-8.5t8.5-20.5v-327q0-12-8.5-20t-20.5-8h-156q-12 0-20.5 8t-8.5 20v327q0 12 8.5 20.5t20.5 8.5h35v42h86v-42h35z" />
<glyph unicode="&#xe095;" glyph-name="battery_std" d="M334 384.333q12 0 20.5-8.5t8.5-20.5v-327q0-12-8.5-20t-20.5-8h-156q-12 0-20.5 8t-8.5 20v327q0 12 8.5 20.5t20.5 8.5h35v42h86v-42h35z" />
<glyph unicode="&#xe096;" glyph-name="battery_unknown" d="M305 198.333q15 15 15 36 0 26-19 45t-45 19-45-19-19-45h32q0 13 9 22.5t23 9.5 23-9.5 9-22.5-9-22l-20-20q-20-20-20-43h34q0 16 18 34zM276 86.333v41h-40v-41h40zM334 384.333q12 0 20.5-8.5t8.5-20.5v-327q0-12-8.5-20t-20.5-8h-156q-12 0-20.5 8t-8.5 20v327q0 12 8.5 20.5t20.5 8.5h35v42h86v-42h35z" />
<glyph unicode="&#xe097;" glyph-name="bluetooth" d="M317 121.333l-40 41v-81zM277 345.333v-81l40 41zM378 305.333l-92-92 92-92-122-121h-21v162l-98-98-30 30 119 119-119 119 30 30 98-98v162h21z" />
<glyph unicode="&#xe098;" glyph-name="bluetooth_connected" d="M405 256.333l43-43-43-43-42 43zM317 121.333l-40 41v-81zM277 345.333v-81l40 41zM378 305.333l-92-92 92-92-122-121h-21v162l-98-98-30 30 119 119-119 119 30 30 98-98v162h21zM149 213.333l-42-43-43 43 43 43z" />
<glyph unicode="&#xe099;" glyph-name="bluetooth_disabled" d="M277 81.333l40 40-40 41v-81zM115 384.333l312-312-30-30-49 49-92-91h-21v162l-98-98-30 30 119 119-141 141zM277 345.333v-69l-42 43v107h21l122-121-65-65-30 30 34 35z" />
<glyph unicode="&#xe09a;" glyph-name="bluetooth_searching" d="M275 121.333l-40 41v-81zM235 345.333v-81l40 41zM335 305.333l-92-92 92-92-122-121h-21v162l-98-98-30 30 119 119-119 119 30 30 98-98v162h21zM417 326.333q31-50 31-111t-33-113l-25 25q21 42 21 86t-21 86zM304 213.333l49 49q10-25 10-49 0-25-10-50z" />
<glyph unicode="&#xe09b;" glyph-name="brightness_auto" d="M305 128.333h41l-69 192h-42l-69-192h41l15 42h68zM427 284.333l70-71-70-71v-100h-100l-71-70-71 70h-100v100l-70 71 70 71v100h100l71 70 71-70h100v-100zM231 199.333l25 78 25-78h-50z" />
<glyph unicode="&#xe09c;" glyph-name="brightness_high" d="M256 298.333q35 0 60-25t25-60-25-60-60-25-60 25-25 60 25 60 60 25zM256 85.333q53 0 90.5 37.5t37.5 90.5-37.5 90.5-90.5 37.5-90.5-37.5-37.5-90.5 37.5-90.5 90.5-37.5zM427 284.333l70-71-70-71v-100h-100l-71-70-71 70h-100v100l-70 71 70 71v100h100l71 70 71-70h100v-100z" />
<glyph unicode="&#xe09d;" glyph-name="brightness_low" d="M256 85.333q53 0 90.5 37.5t37.5 90.5-37.5 90.5-90.5 37.5-90.5-37.5-37.5-90.5 37.5-90.5 90.5-37.5zM427 142.333v-100h-100l-71-70-71 70h-100v100l-70 71 70 71v100h100l71 70 71-70h100v-100l70-71z" />
<glyph unicode="&#xe09e;" glyph-name="brightness_medium" d="M256 85.333q53 0 90.5 37.5t37.5 90.5-37.5 90.5-90.5 37.5v-256zM427 142.333v-100h-100l-71-70-71 70h-100v100l-70 71 70 71v100h100l71 70 71-70h100v-100l70-71z" />
<glyph unicode="&#xe09f;" glyph-name="data_usage" d="M256 64.333q72 0 116 56l56-33q-64-87-172-87-88 0-150.5 62.5t-62.5 150.5q0 83 55.5 143.5t136.5 68.5v-64q-54-8-91-50t-37-98q0-62 43.5-105.5t105.5-43.5zM277 425.333q81-8 136.5-68.5t55.5-143.5q0-48-18-87l-56 33q10 28 10 54 0 56-37 98t-91 50v64z" />
<glyph unicode="&#xe0a0;" glyph-name="developer_mode" d="M363 64.333v42h42v-85q0-17-12.5-30t-29.5-13h-214q-17 0-29.5 13t-12.5 30v85h42v-42h214zM213 145.333l-30-30-98 98 98 98 30-30-67-68zM329 115.333l-30 30 67 68-67 68 30 30 98-98zM149 362.333v-42h-42v85q0 17 12.5 30t29.5 13l214-1q17 0 29.5-12.5t12.5-29.5v-85h-42v42h-214z" />
<glyph unicode="&#xe0a1;" glyph-name="devices" d="M469 106.333v150h-85v-150h85zM491 298.333q9 0 15-6t6-15v-213q0-9-6-15.5t-15-6.5h-128q-9 0-15.5 6.5t-6.5 15.5v213q0 9 6.5 15t15.5 6h128zM85 341.333v-235h214v-64h-299v64h43v235q0 17 12.5 30t29.5 13h384v-43h-384z" />
<glyph unicode="&#xe0a2;" glyph-name="dvr" d="M149 213.333v-43h-42v43h42zM149 298.333v-42h-42v42h42zM405 213.333v-43h-234v43h234zM405 298.333v-42h-234v42h234zM448 106.333v256h-384v-256h384zM448 405.333q17 0 30-13t13-30l-1-256q0-17-12.5-29.5t-29.5-12.5h-107v-43h-170v43h-107q-17 0-30 12.5t-13 29.5v256q0 17 13 30t30 13h384z" />
<glyph unicode="&#xe0a3;" glyph-name="gps_fixed" d="M256 64.333q62 0 105.5 43.5t43.5 105.5-43.5 105.5-105.5 43.5-105.5-43.5-43.5-105.5 43.5-105.5 105.5-43.5zM447 234.333h44v-42h-44q-7-67-55-115t-115-55v-44h-42v44q-67 7-115 55t-55 115h-44v42h44q7 67 55 115t115 55v44h42v-44q67-7 115-55t55-115zM256 298.333q35 0 60-25t25-60-25-60-60-25-60 25-25 60 25 60 60 25z" />
<glyph unicode="&#xe0a4;" glyph-name="gps_not_fixed" d="M256 64.333q62 0 105.5 43.5t43.5 105.5-43.5 105.5-105.5 43.5-105.5-43.5-43.5-105.5 43.5-105.5 105.5-43.5zM447 234.333h44v-42h-44q-7-67-55-115t-115-55v-44h-42v44q-67 7-115 55t-55 115h-44v42h44q7 67 55 115t115 55v44h42v-44q67-7 115-55t55-115z" />
<glyph unicode="&#xe0a5;" glyph-name="gps_off" d="M347 95.333l-209 209q-31-41-31-91 0-62 43.5-105.5t105.5-43.5q50 0 91 31zM64 378.333l27 27 357-357-27-27-44 44q-45-37-100-43v-44h-42v44q-67 7-115 55t-55 115h-44v42h44q6 55 43 100zM447 234.333h44v-42h-44q-5-39-21-68l-32 32q11 27 11 57 0 62-43.5 105.5t-105.5 43.5q-30 0-57-11l-32 32q31 16 68 21v44h42v-44q67-7 115-55t55-115z" />
<glyph unicode="&#xe0a6;" glyph-name="location_disabled" d="M347 95.333l-209 209q-31-41-31-91 0-62 43.5-105.5t105.5-43.5q50 0 91 31zM64 378.333l27 27 357-357-27-27-44 44q-45-37-100-43v-44h-42v44q-67 7-115 55t-55 115h-44v42h44q6 55 43 100zM447 234.333h44v-42h-44q-5-39-21-68l-32 32q11 27 11 57 0 62-43.5 105.5t-105.5 43.5q-30 0-57-11l-32 32q31 16 68 21v44h42v-44q67-7 115-55t55-115z" />
<glyph unicode="&#xe0a7;" glyph-name="location_searching" d="M256 64.333q62 0 105.5 43.5t43.5 105.5-43.5 105.5-105.5 43.5-105.5-43.5-43.5-105.5 43.5-105.5 105.5-43.5zM447 234.333h44v-42h-44q-7-67-55-115t-115-55v-44h-42v44q-67 7-115 55t-55 115h-44v42h44q7 67 55 115t115 55v44h42v-44q67-7 115-55t55-115z" />
<glyph unicode="&#xe0a8;" glyph-name="graphic_eq" d="M405 256.333h43v-86h-43v86zM320 85.333v256h43v-256h-43zM64 170.333v86h43v-86h-43zM235 0.333v426h42v-426h-42zM149 85.333v256h43v-256h-43z" />
<glyph unicode="&#xe0a9;" glyph-name="network_cell" d="M469 0.333h-426l426 426v-426z" />
<glyph unicode="&#xe0aa;" glyph-name="network_wifi" d="M436 236.333l1-1-181-224-181 224 1 1-68 84q121 85 248 85t248-85z" />
<glyph unicode="&#xe0ab;" glyph-name="nfc" d="M384 341.333v-256h-256v256h85v-43h-42v-170h170v170h-64v-48q22-12 22-37 0-17-13-30t-30-13-30 13-13 30q0 25 22 37v48q0 17 12.5 30t29.5 13h107zM427 42.333v342h-342v-342h342zM427 426.333q17 0 29.5-12.5t12.5-29.5v-342q0-17-12.5-29.5t-29.5-12.5h-342q-17 0-29.5 12.5t-12.5 29.5v342q0 17 12.5 29.5t29.5 12.5h342z" />
<glyph unicode="&#xe0ac;" glyph-name="now_wallpaper" d="M85 192.333v-150h150v-42h-150q-17 0-29.5 12.5t-12.5 29.5v150h42zM427 42.333v150h42v-150q0-17-12.5-29.5t-29.5-12.5h-150v42h150zM427 426.333q17 0 29.5-12.5t12.5-29.5v-150h-42v150h-150v42h150zM363 288.333q0-13-9.5-22.5t-22.5-9.5-22.5 9.5-9.5 22.5 9.5 22.5 22.5 9.5 22.5-9.5 9.5-22.5zM213 192.333l64-79 43 57 64-85h-256zM85 384.333v-150h-42v150q0 17 12.5 29.5t29.5 12.5h150v-42h-150z" />
<glyph unicode="&#xe0ad;" glyph-name="now_widgets" d="M355 433.333l121-121-121-120h93v-171h-171v171h78l-120 120v-78h-171v171h171v-93zM64 21.333v171h171v-171h-171z" />
<glyph unicode="&#xe0ae;" glyph-name="screen_lock_landscape" d="M230 256.333v-22h52v22q0 10-7.5 17.5t-18.5 7.5-18.5-7.5-7.5-17.5zM213 128.333q-9 0-15 6t-6 15v64q0 9 6 15t15 6v22q0 17 12.5 29.5t30.5 12.5 30.5-12 12.5-30v-22q9 0 15-6t6-15v-64q0-9-6-15t-15-6h-86zM405 106.333v214h-298v-214h298zM448 362.333q17 0 30-12.5t13-29.5v-214q0-17-13-29.5t-30-12.5h-384q-17 0-30 12.5t-13 29.5v214q0 17 13 29.5t30 12.5h384z" />
<glyph unicode="&#xe0af;" glyph-name="screen_lock_portrait" d="M363 64.333v298h-214v-298h214zM363 448.333q17 0 29.5-13t12.5-30v-384q0-17-12.5-30t-29.5-13h-214q-17 0-29.5 13t-12.5 30v384q0 17 12.5 30t29.5 13h214zM230 256.333v-22h52v22q0 10-7.5 17.5t-18.5 7.5-18.5-7.5-7.5-17.5zM213 128.333q-9 0-15 6t-6 15v64q0 9 6 15t15 6v22q0 17 12.5 29.5t30.5 12.5 30.5-12 12.5-30v-22q9 0 15-6t6-15v-64q0-9-6-15t-15-6h-86z" />
<glyph unicode="&#xe0b0;" glyph-name="screen_lock_rotation" d="M358 416.333v-11h73v11q0 15-10.5 25.5t-25.5 10.5-26-10.5-11-25.5zM341 277.333q-9 0-15 6t-6 15v86q0 9 6 15t15 6v11q0 22 16 37.5t38 15.5 37.5-15.5 15.5-37.5v-11q9 0 15-6t6-15v-86q0-9-6-15t-15-6h-107zM181 32.333l28 28 81-81-14-1q-100 0-173.5 68t-81.5 167h32q6-59 40.5-107.5t87.5-73.5zM496 197.333q10-9 10-22.5t-10-23.5l-136-135q-9-10-22-10t-23 10l-256 256q-10 9-10 22t10 23l135 136q9 10 22.5 10t23.5-10l52-52-30-30-45 44-121-120 242-242 120 121-47 47 30 30z" />
<glyph unicode="&#xe0b1;" glyph-name="screen_rotation" d="M160 11.333l29 28 81-81-14-1q-100 0-173.5 68t-81.5 167h32q6-60 40-108t87-73zM316 17.333l136 136-256 256-136-136zM218 432.333l257-257q10-9 10-22t-10-23l-136-136q-9-10-22-10t-23 10l-257 257q-10 9-10 22t10 23l136 136q9 10 22 10t23-10zM352 415.333l-29-28-81 81 14 1q100 0 173.5-68t81.5-167h-32q-6 60-40 108t-87 73z" />
<glyph unicode="&#xe0b2;" glyph-name="sd_storage" d="M384 298.333v86h-43v-86h43zM320 298.333v86h-43v-86h43zM256 298.333v86h-43v-86h43zM384 426.333q17 0 30-12.5t13-29.5v-342q0-17-13-29.5t-30-12.5h-256q-17 0-30 12.5t-13 29.5l1 256 127 128h171z" />
<glyph unicode="&#xe0b3;" glyph-name="settings_system_daydream" d="M448 63.333v300h-384v-300h384zM448 405.333q17 0 30-13t13-30v-298q0-17-13-30t-30-13h-384q-17 0-30 13t-13 30v298q0 17 13 30t30 13h384zM192 128.333q-26 0-45 19t-19 45q0 25 16.5 43t40.5 20h4q21 43 67 43 28 0 49-18.5t25-45.5h1q22 0 37.5-15.5t15.5-37.5-15.5-37.5-37.5-15.5h-139z" />
<glyph unicode="&#xe0b4;" glyph-name="signal_cellular_4_bar" d="M43 0.333l426 426v-426h-426z" />
<glyph unicode="&#xe0b5;" glyph-name="signal_cellular_connected_no_internet_4_bar" d="M43 0.333l426 426v-128h-85v-298h-341zM427 0.333v42h42v-42h-42zM427 85.333v171h42v-171h-42z" />
<glyph unicode="&#xe0b6;" glyph-name="signal_cellular_no_sim" d="M78 386.333l373-372-28-28-40 41q-12-6-20-6h-214q-17 0-29.5 13t-12.5 30v239l-56 56zM405 362.333v-249l-242 242 50 50h150q17 0 29.5-13t12.5-30z" />
<glyph unicode="&#xe0b7;" glyph-name="signal_cellular_null" d="M469 426.333v-426h-426zM427 323.333l-281-281h281v281z" />
<glyph unicode="&#xe0b8;" glyph-name="signal_cellular_off" d="M102 373.333l367-368-27-27-42 43h-379l189 189-135 136zM448 448.333v-367l-183 183z" />
<glyph unicode="&#xe0b9;" glyph-name="signal_wifi_4_bar" d="M256 11.333l-248 309q121 85 248 85t248-85z" />
<glyph unicode="&#xe0ba;" glyph-name="signal_wifi_4_bar_lock" d="M331 160.333v-56l-75-94-247 310 6 5q6 4 12.5 8.5t17.5 11.5 23.5 13 28.5 13.5 34 13 37.5 10.5 42 7.5 45.5 2.5 45.5-2.5 42-7.5 37.5-10.5 34-13 28.5-13.5 23.5-13 17.5-11.5 12.5-8.5l6-5-44-56q-6 2-22 2-45 0-75.5-30.5t-30.5-75.5zM469 128.333v32q0 13-9.5 22.5t-22.5 9.5-22.5-9.5-9.5-22.5v-32h64zM491 128.333q8 0 14.5-7t6.5-15v-85q0-8-6.5-14.5t-14.5-6.5h-107q-8 0-14.5 6.5t-6.5 14.5v85q0 8 6.5 15t14.5 7v32q0 23 15 38t38 15 38.5-15.5 15.5-37.5v-32z" />
<glyph unicode="&#xe0bb;" glyph-name="signal_wifi_off" d="M70 438.333q12-12 153.5-153t213.5-215l-27-27-71 71-83-103-248 309q33 27 78 47l-43 44zM504 320.333l-116-145-221 220q45 10 89 10 127 0 248-85z" />
<glyph unicode="&#xe0bc;" glyph-name="storage" d="M85 234.333v-42h43v42h-43zM43 170.333v86h426v-86h-426zM128 320.333v42h-43v-42h43zM43 384.333h426v-86h-426v86zM85 106.333v-42h43v42h-43zM43 42.333v86h426v-86h-426z" />
<glyph unicode="&#xe0bd;" glyph-name="usb" d="M320 320.333h85v-86h-21v-42q0-18-12.5-30.5t-30.5-12.5h-64v-65q26-14 26-42 0-19-13.5-33t-33.5-14-33.5 14-13.5 33q0 28 26 42v65h-64q-18 0-30.5 12.5t-12.5 30.5v44q-26 14-26 41 0 20 14 33.5t33 13.5 33-13.5 14-33.5q0-28-25-41v-44h64v170h-43l64 86 64-86h-43v-170h64v42h-21v86z" />
<glyph unicode="&#xe0be;" glyph-name="wifi_lock" d="M469 128.333v32q0 13-9.5 22.5t-22.5 9.5-22.5-9.5-9.5-22.5v-32h64zM491 128.333q9 0 15-6.5t6-15.5v-85q0-9-6-15t-15-6h-107q-9 0-15 6t-6 15v85q0 9 6 15.5t15 6.5v32q0 22 15.5 37.5t37.5 15.5 38-15.5 16-37.5v-32zM437 266.333q-44 0-75-31t-31-75v-61l-75-99-256 341q112 85 256 85t256-85l-57-76q-6 1-18 1z" />
<glyph unicode="&#xe0bf;" glyph-name="wifi_tethering" d="M256 405.333q88 0 150.5-62t62.5-151q0-58-28.5-107.5t-77.5-77.5l-22 37q39 23 62.5 62.5t23.5 85.5q0 70-50 120t-121 50-121-50-50-120q0-47 23-86t62-62l-21-37q-49 28-77.5 77.5t-28.5 107.5q0 89 62.5 151t150.5 62zM384 192.333q0-35-17.5-64.5t-46.5-46.5l-21 37q42 25 42 74 0 35-25 60t-60 25-60-25-25-60q0-49 42-74l-21-37q-29 17-46.5 46.5t-17.5 64.5q0 53 37.5 90.5t90.5 37.5 90.5-37.5 37.5-90.5zM256 234.333q17 0 30-12.5t13-29.5-13-30-30-13-30 13-13 30 13 29.5 30 12.5z" />
<glyph unicode="&#xe0c0;" glyph-name="attach_file" d="M352 341.333h32v-245q0-49-34-83.5t-83-34.5-83.5 34.5-34.5 83.5v266q0 35 25.5 60.5t60.5 25.5 60-25.5 25-60.5v-224q0-22-15.5-37.5t-37.5-15.5-38 15.5-16 37.5v203h32v-203q0-9 6.5-15t15.5-6 15 6 6 15v224q0 22-15.5 38t-37.5 16-38-16-16-38v-266q0-35 25.5-60.5t60.5-25.5 60 25.5 25 60.5v245z" />
<glyph unicode="&#xe0c1;" glyph-name="attach_money" d="M252 236.333q22-6 36.5-12t30.5-16.5 24.5-26.5 8.5-38q0-31-20.5-50.5t-54.5-25.5v-46h-64v46q-33 7-54.5 28t-23.5 54h47q4-45 63-45 31 0 44.5 11.5t13.5 26.5q0 36-64 52-100 23-100 88 0 29 21 49.5t53 27.5v46h64v-47q33-8 50.5-30t18.5-51h-47q-2 45-54 45-26 0-41.5-11t-15.5-29q0-29 64-46z" />
<glyph unicode="&#xe0c2;" glyph-name="border_all" d="M405 234.333v128h-128v-128h128zM405 64.333v128h-128v-128h128zM235 234.333v128h-128v-128h128zM235 64.333v128h-128v-128h128zM64 405.333h384v-384h-384v384z" />
<glyph unicode="&#xe0c3;" glyph-name="border_bottom" d="M107 149.333v-43h-43v43h43zM64 21.333v43h384v-43h-384zM107 234.333v-42h-43v42h43zM405 277.333v43h43v-43h-43zM405 405.333h43v-43h-43v43zM107 320.333v-43h-43v43h43zM405 106.333v43h43v-43h-43zM405 192.333v42h43v-42h-43zM363 405.333v-43h-43v43h43zM277 405.333v-43h-42v43h42zM363 234.333v-42h-43v42h43zM277 320.333v-43h-42v43h42zM107 405.333v-43h-43v43h43zM277 234.333v-42h-42v42h42zM192 405.333v-43h-43v43h43zM277 149.333v-43h-42v43h42zM192 234.333v-42h-43v42h43z" />
<glyph unicode="&#xe0c4;" glyph-name="border_clear" d="M320 362.333v43h43v-43h-43zM320 192.333v42h43v-42h-43zM320 21.333v43h43v-43h-43zM235 362.333v43h42v-43h-42zM405 405.333h43v-43h-43v43zM235 277.333v43h42v-43h-42zM405 277.333v43h43v-43h-43zM405 21.333v43h43v-43h-43zM405 192.333v42h43v-42h-43zM405 106.333v43h43v-43h-43zM235 192.333v42h42v-42h-42zM64 362.333v43h43v-43h-43zM64 277.333v43h43v-43h-43zM64 192.333v42h43v-42h-43zM64 106.333v43h43v-43h-43zM64 21.333v43h43v-43h-43zM235 21.333v43h42v-43h-42zM235 106.333v43h42v-43h-42zM149 21.333v43h43v-43h-43zM149 192.333v42h43v-42h-43zM149 362.333v43h43v-43h-43z" />
<glyph unicode="&#xe0c5;" glyph-name="border_color" d="M0 42.333h512v-85h-512v85zM442 383.333l-42-42-80 80 42 42q6 6 15 6t15-6l50-50q6-6 6-15t-6-15zM379 320.333l-214-214h-80v80l214 214z" />
<glyph unicode="&#xe0c6;" glyph-name="border_horizontal" d="M405 21.333v43h43v-43h-43zM320 21.333v43h43v-43h-43zM235 106.333v43h42v-43h-42zM405 277.333v43h43v-43h-43zM405 405.333h43v-43h-43v43zM64 192.333v42h384v-42h-384zM235 21.333v43h42v-43h-42zM405 106.333v43h43v-43h-43zM277 405.333v-43h-42v43h42zM277 320.333v-43h-42v43h42zM363 405.333v-43h-43v43h43zM192 405.333v-43h-43v43h43zM107 405.333v-43h-43v43h43zM149 21.333v43h43v-43h-43zM64 106.333v43h43v-43h-43zM107 320.333v-43h-43v43h43zM64 21.333v43h43v-43h-43z" />
<glyph unicode="&#xe0c7;" glyph-name="border_inner" d="M405 106.333v43h43v-43h-43zM405 21.333v43h43v-43h-43zM277 405.333v-171h171v-42h-171v-171h-42v171h-171v42h171v171h42zM320 21.333v43h43v-43h-43zM405 405.333h43v-43h-43v43zM405 277.333v43h43v-43h-43zM363 405.333v-43h-43v43h43zM107 405.333v-43h-43v43h43zM192 405.333v-43h-43v43h43zM64 106.333v43h43v-43h-43zM107 320.333v-43h-43v43h43zM149 21.333v43h43v-43h-43zM64 21.333v43h43v-43h-43z" />
<glyph unicode="&#xe0c8;" glyph-name="border_left" d="M320 362.333v43h43v-43h-43zM320 192.333v42h43v-42h-43zM405 21.333v43h43v-43h-43zM405 192.333v42h43v-42h-43zM405 405.333h43v-43h-43v43zM405 106.333v43h43v-43h-43zM320 21.333v43h43v-43h-43zM405 277.333v43h43v-43h-43zM64 21.333v384h43v-384h-43zM149 192.333v42h43v-42h-43zM149 362.333v43h43v-43h-43zM149 21.333v43h43v-43h-43zM235 192.333v42h42v-42h-42zM235 277.333v43h42v-43h-42zM235 362.333v43h42v-43h-42zM235 106.333v43h42v-43h-42zM235 21.333v43h42v-43h-42z" />
<glyph unicode="&#xe0c9;" glyph-name="border_outer" d="M192 234.333v-42h-43v42h43zM277 149.333v-43h-42v43h42zM405 64.333v298h-298v-298h298zM64 405.333h384v-384h-384v384zM363 234.333v-42h-43v42h43zM277 234.333v-42h-42v42h42zM277 320.333v-43h-42v43h42z" />
<glyph unicode="&#xe0ca;" glyph-name="border_right" d="M235 277.333v43h42v-43h-42zM235 362.333v43h42v-43h-42zM235 192.333v42h42v-42h-42zM320 362.333v43h43v-43h-43zM320 21.333v43h43v-43h-43zM405 405.333h43v-384h-43v384zM320 192.333v42h43v-42h-43zM235 106.333v43h42v-43h-42zM64 277.333v43h43v-43h-43zM64 106.333v43h43v-43h-43zM64 192.333v42h43v-42h-43zM235 21.333v43h42v-43h-42zM64 21.333v43h43v-43h-43zM149 192.333v42h43v-42h-43zM149 362.333v43h43v-43h-43zM64 362.333v43h43v-43h-43zM149 21.333v43h43v-43h-43z" />
<glyph unicode="&#xe0cb;" glyph-name="border_style" d="M405 277.333v43h43v-43h-43zM64 405.333h384v-43h-341v-341h-43v384zM405 192.333v42h43v-42h-43zM405 106.333v43h43v-43h-43zM235 21.333v43h42v-43h-42zM149 21.333v43h43v-43h-43zM405 21.333v43h43v-43h-43zM320 21.333v43h43v-43h-43z" />
<glyph unicode="&#xe0cc;" glyph-name="border_top" d="M320 192.333v42h43v-42h-43zM405 21.333v43h43v-43h-43zM235 277.333v43h42v-43h-42zM320 21.333v43h43v-43h-43zM405 106.333v43h43v-43h-43zM64 405.333h384v-43h-384v43zM405 192.333v42h43v-42h-43zM405 277.333v43h43v-43h-43zM235 106.333v43h42v-43h-42zM64 277.333v43h43v-43h-43zM64 192.333v42h43v-42h-43zM64 21.333v43h43v-43h-43zM64 106.333v43h43v-43h-43zM235 21.333v43h42v-43h-42zM235 192.333v42h42v-42h-42zM149 192.333v42h43v-42h-43zM149 21.333v43h43v-43h-43z" />
<glyph unicode="&#xe0cd;" glyph-name="border_vertical" d="M320 192.333v42h43v-42h-43zM320 21.333v43h43v-43h-43zM320 362.333v43h43v-43h-43zM405 277.333v43h43v-43h-43zM405 405.333h43v-43h-43v43zM405 192.333v42h43v-42h-43zM405 21.333v43h43v-43h-43zM235 21.333v384h42v-384h-42zM405 106.333v43h43v-43h-43zM149 362.333v43h43v-43h-43zM64 106.333v43h43v-43h-43zM64 21.333v43h43v-43h-43zM64 192.333v42h43v-42h-43zM149 192.333v42h43v-42h-43zM149 21.333v43h43v-43h-43zM64 362.333v43h43v-43h-43zM64 277.333v43h43v-43h-43z" />
<glyph unicode="&#xe0ce;" glyph-name="format_align_center" d="M64 405.333h384v-43h-384v43zM149 320.333h214v-43h-214v43zM64 192.333v42h384v-42h-384zM64 21.333v43h384v-43h-384zM149 149.333h214v-43h-214v43z" />
<glyph unicode="&#xe0cf;" glyph-name="format_align_justify" d="M64 405.333h384v-43h-384v43zM64 277.333v43h384v-43h-384zM64 192.333v42h384v-42h-384zM64 106.333v43h384v-43h-384zM64 21.333v43h384v-43h-384z" />
<glyph unicode="&#xe0d0;" glyph-name="format_align_left" d="M64 405.333h384v-43h-384v43zM64 21.333v43h384v-43h-384zM64 192.333v42h384v-42h-384zM320 320.333v-43h-256v43h256zM320 149.333v-43h-256v43h256z" />
<glyph unicode="&#xe0d1;" glyph-name="format_align_right" d="M64 405.333h384v-43h-384v43zM192 277.333v43h256v-43h-256zM64 192.333v42h384v-42h-384zM192 106.333v43h256v-43h-256zM64 21.333v43h384v-43h-384z" />
<glyph unicode="&#xe0d2;" glyph-name="format_bold" d="M288 138.333q14 0 23 9.5t9 22.5-9 22.5-23 9.5h-75v-64h75zM213 330.333v-64h64q13 0 22.5 9.5t9.5 22.5-9.5 22.5-22.5 9.5h-64zM333 239.333q46-21 46-73 0-34-22.5-57.5t-56.5-23.5h-151v299h134q36 0 60.5-25t24.5-61-35-59z" />
<glyph unicode="&#xe0d3;" glyph-name="format_clear" d="M128 362.333h299v-64h-124l-34-80-45 44 15 36h-51l-60 60v4zM70 362.333l6-5 308-309-27-27-121 121-33-78h-64l52 123-148 148z" />
<glyph unicode="&#xe0d4;" glyph-name="format_color_fill" d="M0 42.333h512v-85h-512v85zM405 224.333q43-47 43-75 0-17-13-30t-30-13-29.5 13-12.5 30q0 12 10.5 31t20.5 31zM111 256.333h205l-103 102zM353 278.333q10-10 10-23t-10-22l-117-117q-10-10-23-10-12 0-22 10l-118 117q-10 9-10 22t10 23l110 110-51 51 31 30z" />
<glyph unicode="&#xe0d5;" glyph-name="format_color_reset" d="M112 357.333l312-312-27-27-57 56q-37-32-84-32-53 0-90.5 37.5t-37.5 90.5q0 34 28 88l-71 71zM384 170.333q0-15-3-28l-183 184 58 75q14-16 35.5-43t57-88.5 35.5-99.5z" />
<glyph unicode="&#xe0d6;" glyph-name="format_color_text" d="M205 213.333h102l-51 135zM235 405.333h42l117-299h-48l-23 64h-134l-24-64h-48zM0 42.333h512v-85h-512v85z" />
<glyph unicode="&#xe0d7;" glyph-name="format_indent_decrease" d="M235 192.333v42h213v-42h-213zM235 277.333v43h213v-43h-213zM64 405.333h384v-43h-384v43zM64 21.333v43h384v-43h-384zM64 213.333l85 85v-170zM235 106.333v43h213v-43h-213z" />
<glyph unicode="&#xe0d8;" glyph-name="format_indent_increase" d="M235 192.333v42h213v-42h-213zM235 277.333v43h213v-43h-213zM64 405.333h384v-43h-384v43zM235 106.333v43h213v-43h-213zM64 298.333l85-85-85-85v170zM64 21.333v43h384v-43h-384z" />
<glyph unicode="&#xe0d9;" glyph-name="format_italic" d="M213 384.333h171v-64h-60l-72-171h47v-64h-171v64h60l72 171h-47v64z" />
<glyph unicode="&#xe0da;" glyph-name="format_line_spacing" d="M213 192.333v42h256v-42h-256zM213 64.333v42h256v-42h-256zM213 362.333h256v-42h-256v42zM128 320.333v-214h53l-74-74-75 74h53v214h-53l75 74 74-74h-53z" />
<glyph unicode="&#xe0db;" glyph-name="format_list_bulleted" d="M149 362.333h299v-42h-299v42zM149 192.333v42h299v-42h-299zM149 64.333v42h299v-42h-299zM85 113.333q12 0 20.5-8t8.5-20-8.5-20-20.5-8-20 8-8 20 8 20 20 8zM85 373.333q13 0 22.5-9t9.5-23-9.5-23-22.5-9-22.5 9-9.5 23 9.5 23 22.5 9zM85 245.333q13 0 22.5-9t9.5-23-9.5-23-22.5-9-22.5 9-9.5 23 9.5 23 22.5 9z" />
<glyph unicode="&#xe0dc;" glyph-name="format_list_numbered" d="M149 192.333v42h299v-42h-299zM149 64.333v42h299v-42h-299zM149 362.333h299v-42h-299v42zM43 234.333v22h64v-20l-39-44h39v-22h-64v20l38 44h-38zM64 298.333v64h-21v22h42v-86h-21zM43 106.333v22h64v-86h-64v22h42v10h-21v22h21v10h-42z" />
<glyph unicode="&#xe0dd;" glyph-name="format_paint" d="M384 384.333h64v-171h-171v-192q0-9-6-15t-15-6h-43q-9 0-15 6t-6 15v235h213v85h-21v-21q0-9-6-15.5t-15-6.5h-256q-9 0-15.5 6.5t-6.5 15.5v85q0 9 6.5 15t15.5 6h256q9 0 15-6t6-15v-21z" />
<glyph unicode="&#xe0de;" glyph-name="format_quote" d="M299 106.333l42 86h-64v128h128v-128l-42-86h-64zM128 106.333l43 86h-64v128h128v-128l-43-86h-64z" />
<glyph unicode="&#xe0df;" glyph-name="format_size" d="M64 213.333v64h192v-64h-64v-149h-64v149h-64zM192 384.333h277v-64h-106v-256h-64v256h-107v64z" />
<glyph unicode="&#xe0e0;" glyph-name="format_strikethrough" d="M64 170.333v43h384v-43h-384zM107 384.333h298v-64h-106v-64h-86v64h-106v64zM213 64.333v64h86v-64h-86z" />
<glyph unicode="&#xe0e1;" glyph-name="format_textdirection_l_to_r" d="M448 85.333l-85-85v64h-256v42h256v64zM192 256.333q-35 0-60 25t-25 60 25 60 60 25h171v-42h-43v-235h-43v235h-42v-235h-43v107z" />
<glyph unicode="&#xe0e2;" glyph-name="format_textdirection_r_to_l" d="M171 106.333h256v-42h-256v-64l-86 85 86 85v-64zM213 256.333q-35 0-60 25t-25 60 25 60 60 25h171v-42h-43v-235h-42v235h-43v-235h-43v107z" />
<glyph unicode="&#xe0e3;" glyph-name="format_underlined" d="M107 64.333h298v-43h-298v43zM256 106.333q-53 0-90.5 37.5t-37.5 90.5v171h53v-171q0-31 22-52.5t53-21.5 53 21.5 22 52.5v171h53v-171q0-53-37.5-90.5t-90.5-37.5z" />
<glyph unicode="&#xe0e4;" glyph-name="functions" d="M384 384.333v-64h-149l106-107-106-107h149v-64h-256v43l139 128-139 128v43h256z" />
<glyph unicode="&#xe0e5;" glyph-name="insert_chart" d="M363 106.333v86h-43v-86h43zM277 106.333v214h-42v-214h42zM192 106.333v150h-43v-150h43zM405 405.333q17 0 30-13t13-30v-298q0-17-13-30t-30-13h-298q-17 0-30 13t-13 30v298q0 17 13 30t30 13h298z" />
<glyph unicode="&#xe0e6;" glyph-name="insert_comment" d="M384 298.333v43h-256v-43h256zM384 234.333v43h-256v-43h256zM384 170.333v43h-256v-43h256zM427 426.333q17 0 29.5-12.5t12.5-29.5v-384l-85 85h-299q-17 0-29.5 13t-12.5 30v256q0 17 12.5 29.5t29.5 12.5h342z" />
<glyph unicode="&#xe0e7;" glyph-name="insert_drive_file" d="M277 277.333h118l-118 117v-117zM128 426.333h171l128-128v-256q0-17-13-29.5t-30-12.5h-256q-17 0-30 12.5t-13 29.5l1 342q0 17 12.5 29.5t29.5 12.5z" />
<glyph unicode="&#xe0e8;" glyph-name="insert_emoticon" d="M256 96.333q-37 0-66.5 20.5t-42.5 53.5h218q-13-33-42.5-53.5t-66.5-20.5zM181 234.333q-13 0-22.5 9.5t-9.5 22.5 9.5 22.5 22.5 9.5 22.5-9.5 9.5-22.5-9.5-22.5-22.5-9.5zM331 234.333q-13 0-22.5 9.5t-9.5 22.5 9.5 22.5 22.5 9.5 22.5-9.5 9.5-22.5-9.5-22.5-22.5-9.5zM256 42.333q70 0 120.5 50.5t50.5 120.5-50.5 120.5-120.5 50.5-120.5-50.5-50.5-120.5 50.5-120.5 120.5-50.5zM256 426.333q88 0 150.5-62.5t62.5-150.5-62.5-150.5-150.5-62.5-150.5 62.5-62.5 150.5 62.5 150.5 150.5 62.5z" />
<glyph unicode="&#xe0e9;" glyph-name="insert_invitation" d="M405 64.333v234h-298v-234h298zM341 448.333h43v-43h21q17 0 30-13t13-30v-298q0-17-13-30t-30-13h-298q-18 0-30.5 13t-12.5 30v298q0 17 12.5 30t30.5 13h21v43h43v-43h170v43zM363 213.333v-107h-107v107h107z" />
<glyph unicode="&#xe0ea;" glyph-name="insert_link" d="M363 320.333q44 0 75-31.5t31-75.5-31-75.5-75-31.5h-86v41h86q27 0 46.5 19.5t19.5 46.5-19.5 46.5-46.5 19.5h-86v41h86zM171 192.333v42h170v-42h-170zM83 213.333q0-27 19.5-46.5t46.5-19.5h86v-41h-86q-44 0-75 31.5t-31 75.5 31 75.5 75 31.5h86v-41h-86q-27 0-46.5-19.5t-19.5-46.5z" />
<glyph unicode="&#xe0eb;" glyph-name="insert_photo" d="M181 181.333l-74-96h298l-96 128-74-96zM448 64.333q0-17-13-30t-30-13h-298q-17 0-30 13t-13 30v298q0 17 13 30t30 13h298q17 0 30-13t13-30v-298z" />
<glyph unicode="&#xe0ec;" glyph-name="merge_type" d="M160 298.333l96 96 96-96h-75v-136l-128-128-30 30 116 115v119h-75zM363 34.333l-73 72 30 30 73-72z" />
<glyph unicode="&#xe0ed;" glyph-name="mode_comment" d="M469 384.333v-384l-85 85h-299q-17 0-29.5 13t-12.5 30v256q0 17 12.5 29.5t29.5 12.5h342q17 0 29.5-12.5t12.5-29.5z" />
<glyph unicode="&#xe0ee;" glyph-name="mode_edit" d="M442 319.333l-39-39-80 80 39 39q6 6 15 6t15-6l50-50q6-6 6-15t-6-15zM64 101.333l236 236 80-80-236-236h-80v80z" />
<glyph unicode="&#xe0ef;" glyph-name="publish" d="M107 170.333l149 150 149-150h-85v-128h-128v128h-85zM107 384.333h298v-43h-298v43z" />
<glyph unicode="&#xe0f0;" glyph-name="space_bar" d="M384 277.333h43v-128h-342v128h43v-85h256v85z" />
<glyph unicode="&#xe0f1;" glyph-name="strikethrough_s" d="M491 213.333v-43h-92l4-8q9-23 9-47 0-22-11-49-6-16-30-36-22-19-47-24-25-8-62-8-34 0-79 14-7 3-18.5 10.5t-15.5 9.5q-12 6-27 25t-20 34q-6 19-6 45h85q0-18 7-34 3-7 17-21 17-17 60-17 11 0 29 4 2 2 10 5.5t10 5.5q9 6 12 15 5 15 5 19 0 26-15 36-18 12-26 15-2 1-7.5 3t-7.5 3h-254v43h470zM126 256.333q-6 6-7 8-10 22-10 47t13 47q16 40 79 60 25 8 61 8 44 0 67-10 24-5 49-26 20-17 29-40 11-27 11-52h-85q0 32-17 43-17 17-51 17-12 0-30-4-8-2-22-11-9-6-12-15-5-15-5-19 0-21 22-34 22-12 42-19h-134z" />
<glyph unicode="&#xe0f2;" glyph-name="vertical_align_bottom" d="M85 64.333h342v-43h-342v43zM341 192.333l-85-86-85 86h64v213h42v-213h64z" />
<glyph unicode="&#xe0f3;" glyph-name="vertical_align_center" d="M85 234.333h342v-42h-342v42zM341 362.333l-85-85-85 85h64v86h42v-86h64zM171 64.333l85 85 85-85h-64v-86h-42v86h-64z" />
<glyph unicode="&#xe0f4;" glyph-name="vertical_align_top" d="M85 405.333h342v-43h-342v43zM171 234.333l85 86 85-86h-64v-213h-42v213h-64z" />
<glyph unicode="&#xe0f5;" glyph-name="wrap_text" d="M363 234.333q35 0 60-25t25-60-25-60-60-25h-43v-43l-64 64 64 64v-43h48q17 0 30 13t13 30-13 30-30 13h-283v42h278zM427 362.333v-42h-342v42h342zM85 64.333v42h128v-42h-128z" />
<glyph unicode="&#xe0f6;" glyph-name="money_off" d="M114 382.333l311-312-27-27-47 48q-19-17-52-24v-46h-64v46q-33 7-55 28t-24 54h47q4-45 64-45 37 0 51 20l-75 74q-83 25-83 84l-73 73zM267 322.333q-19 0-33-6l-31 31q14 7 32 12v46h64v-47q32-8 49.5-30t18.5-51h-47q-2 45-53 45z" />
<glyph unicode="&#xe0f7;" glyph-name="attachment" d="M160 85.333q-49 0-83 34t-34 83 34 83.5 83 34.5h224q35 0 60-25.5t25-60.5-25-60-60-25h-181q-22 0-38 15.5t-16 37.5 16 38 38 16h160v-32h-160q-9 0-15.5-6.5t-6.5-15.5 6.5-15 15.5-6h181q22 0 37.5 15.5t15.5 37.5-15.5 38-37.5 16h-224q-35 0-60-25.5t-25-60.5 25-60 60-25h203v-32h-203z" />
<glyph unicode="&#xe0f8;" glyph-name="cloud" d="M413 255.333q41-3 70-33.5t29-72.5q0-44-31.5-75.5t-75.5-31.5h-277q-53 0-90.5 37.5t-37.5 90.5q0 49 33 85.5t81 41.5q21 39 59 63t83 24q58 0 102-36.5t55-92.5z" />
<glyph unicode="&#xe0f9;" glyph-name="cloud_circle" d="M352 128.333q22 0 37.5 15.5t15.5 37.5-15.5 37.5-37.5 15.5h-11q0 35-25 60.5t-60 25.5q-30 0-52.5-18.5t-29.5-46.5l-3 1q-26 0-45-19t-19-45 19-45 45-19h181zM256 426.333q88 0 150.5-62.5t62.5-150.5-62.5-150.5-150.5-62.5-150.5 62.5-62.5 150.5 62.5 150.5 150.5 62.5z" />
<glyph unicode="&#xe0fa;" glyph-name="cloud_done" d="M213 106.333l141 141-30 30-111-110-44 44-30-30zM413 255.333q41-3 70-33.5t29-72.5q0-44-31.5-75.5t-75.5-31.5h-277q-53 0-90.5 37.5t-37.5 90.5q0 49 33 85.5t81 41.5q21 39 59 63t83 24q58 0 102-36.5t55-92.5z" />
<glyph unicode="&#xe0fb;" glyph-name="cloud_download" d="M363 192.333h-64v85h-86v-85h-64l107-107zM413 255.333q41-3 70-33.5t29-72.5q0-44-31.5-75.5t-75.5-31.5h-277q-53 0-90.5 37.5t-37.5 90.5q0 49 33 85.5t81 41.5q21 39 59 63t83 24q58 0 102-36.5t55-92.5z" />
<glyph unicode="&#xe0fc;" glyph-name="cloud_off" d="M165 256.333h-37q-35 0-60-25.5t-25-60.5 25-60 60-25h208zM64 357.333l27 27 357-357-27-27-43 42h-250q-53 0-90.5 37.5t-37.5 90.5q0 52 36 89t87 39zM413 255.333q41-3 70-33.5t29-72.5q0-55-45-87l-31 31q33 18 33 56 0 26-19 45t-45 19h-32v11q0 49-34 83t-83 34q-31 0-54-13l-32 31q39 25 86 25 58 0 102-36.5t55-92.5z" />
<glyph unicode="&#xe0fd;" glyph-name="cloud_queue" d="M405 85.333q26 0 45 19t19 45-19 45-45 19h-32v11q0 49-34 83t-83 34q-40 0-71-24t-42-61h-15q-35 0-60-25.5t-25-60.5 25-60 60-25h277zM413 255.333q41-3 70-33.5t29-72.5q0-44-31.5-75.5t-75.5-31.5h-277q-53 0-90.5 37.5t-37.5 90.5q0 49 33 85.5t81 41.5q21 39 59 63t83 24q58 0 102-36.5t55-92.5z" />
<glyph unicode="&#xe0fe;" glyph-name="cloud_upload" d="M299 192.333h64l-107 106-107-106h64v-86h86v86zM413 255.333q41-3 70-33.5t29-72.5q0-44-31.5-75.5t-75.5-31.5h-277q-53 0-90.5 37.5t-37.5 90.5q0 49 33 85.5t81 41.5q21 39 59 63t83 24q58 0 102-36.5t55-92.5z" />
<glyph unicode="&#xe0ff;" glyph-name="file_download" d="M107 85.333h298v-43h-298v43zM405 277.333l-149-149-149 149h85v128h128v-128h85z" />
<glyph unicode="&#xe100;" glyph-name="file_upload" d="M107 85.333h298v-43h-298v43zM192 128.333v128h-85l149 149 149-149h-85v-128h-128z" />
<glyph unicode="&#xe101;" glyph-name="folder" d="M213 384.333l43-43h171q17 0 29.5-13t12.5-30v-213q0-17-12.5-30t-29.5-13h-342q-17 0-29.5 13t-12.5 30v256q0 17 12.5 30t29.5 13h128z" />
<glyph unicode="&#xe102;" glyph-name="folder_open" d="M427 85.333v213h-342v-213h342zM427 341.333q17 0 29.5-13t12.5-30v-213q0-17-12.5-30t-29.5-13h-342q-17 0-29.5 13t-12.5 30v256q0 17 12.5 30t29.5 13h128l43-43h171z" />
<glyph unicode="&#xe103;" glyph-name="folder_shared" d="M405 106.333v22q0 19-29.5 30.5t-55.5 11.5-55.5-11.5-29.5-30.5v-22h170zM320 277.333q-17 0-30-13t-13-30 13-29.5 30-12.5 30 12.5 13 29.5-13 30-30 13zM427 341.333q17 0 29.5-13t12.5-30v-213q0-17-12.5-30t-29.5-13h-342q-17 0-29.5 13t-12.5 30v256q0 17 12.5 30t29.5 13h128l43-43h171z" />
<glyph unicode="&#xe104;" glyph-name="cast" d="M21 256.333q97 0 166-69t69-166h-43q0 80-56.5 136t-135.5 56v43zM21 170.333q62 0 106-43.5t44-105.5h-43q0 44-31.5 75.5t-75.5 31.5v42zM21 85.333q26 0 45-19t19-45h-64v64zM448 405.333q17 0 30-13t13-30v-298q0-17-13-30t-30-13h-149v43h149v298h-384v-64h-43v64q0 17 13 30t30 13h384z" />
<glyph unicode="&#xe105;" glyph-name="cast_connected" d="M448 405.333q17 0 30-13t13-30v-298q0-17-13-30t-30-13h-149v43h149v298h-384v-64h-43v64q0 17 13 30t30 13h384zM21 256.333q97 0 166-69t69-166h-43q0 80-56.5 136t-135.5 56v43zM405 320.333v-214h-120q-20 63-67.5 111t-110.5 68v35h298zM21 170.333q62 0 106-43.5t44-105.5h-43q0 44-31.5 75.5t-75.5 31.5v42zM21 85.333q26 0 45-19t19-45h-64v64z" />
<glyph unicode="&#xe106;" glyph-name="computer" d="M85 341.333v-213h342v213h-342zM427 85.333h85v-43h-512v43h85q-17 0-29.5 13t-12.5 30v213q0 17 12.5 30t29.5 13h342q17 0 29.5-13t12.5-30v-213q0-17-12.5-30t-29.5-13z" />
<glyph unicode="&#xe107;" glyph-name="desktop_mac" d="M448 170.333v214h-384v-214h384zM448 426.333q17 0 30-12.5t13-29.5v-256q0-17-13-30t-30-13h-149l42-64v-21h-170v21l42 64h-149q-17 0-30 13t-13 30v256q0 17 13 29.5t30 12.5h384z" />
<glyph unicode="&#xe108;" glyph-name="desktop_windows" d="M448 128.333v256h-384v-256h384zM448 426.333q17 0 30-12.5t13-29.5v-256q0-17-13-30t-30-13h-149v-43h42v-42h-170v42h42v43h-149q-17 0-30 13t-13 30v256q0 17 13 29.5t30 12.5h384z" />
<glyph unicode="&#xe109;" glyph-name="developer_board" d="M256 234.333h85v-128h-85v128zM128 320.333h107v-107h-107v107zM256 320.333h85v-64h-85v64zM128 192.333h107v-86h-107v86zM384 64.333v298h-299v-298h299zM469 277.333h-42v-43h42v-42h-42v-43h42v-43h-42v-42q0-17-13-30t-30-13h-299q-17 0-29.5 13t-12.5 30v298q0 17 12.5 30t29.5 13h299q17 0 30-13t13-30v-42h42v-43z" />
<glyph unicode="&#xe10a;" glyph-name="dock" d="M341 149.333v213h-170v-213h170zM341 447.333q17 0 30-12.5t13-29.5v-299q0-17-13-29.5t-30-12.5h-170q-17 0-30 12.5t-13 29.5v299q0 17 13 30t30 13zM171-21.667v43h170v-43h-170z" />
<glyph unicode="&#xe10b;" glyph-name="gamepad" d="M352 277.333h117v-128h-117l-64 64zM192 117.333l64 64 64-64v-117h-128v117zM160 277.333l64-64-64-64h-117v128h117zM320 309.333l-64-64-64 64v117h128v-117z" />
<glyph unicode="&#xe10c;" glyph-name="headset" d="M256 448.333q80 0 136-56.5t56-135.5v-150q0-26-19-45t-45-19h-64v171h85v43q0 62-43.5 105.5t-105.5 43.5-105.5-43.5-43.5-105.5v-43h85v-171h-64q-26 0-45 19t-19 45v150q0 79 56 135.5t136 56.5z" />
<glyph unicode="&#xe10d;" glyph-name="headset_mic" d="M256 448.333q80 0 136-56.5t56-135.5v-214q0-26-19-45t-45-19h-128v43h149v21h-85v171h85v43q0 62-43.5 105.5t-105.5 43.5-105.5-43.5-43.5-105.5v-43h85v-171h-64q-26 0-45 19t-19 45v150q0 79 56 135.5t136 56.5z" />
<glyph unicode="&#xe10e;" glyph-name="keyboard" d="M405 256.333v42h-42v-42h42zM405 192.333v42h-42v-42h42zM341 256.333v42h-42v-42h42zM341 192.333v42h-42v-42h42zM341 106.333v43h-170v-43h170zM149 256.333v42h-42v-42h42zM149 192.333v42h-42v-42h42zM171 234.333v-42h42v42h-42zM171 298.333v-42h42v42h-42zM235 234.333v-42h42v42h-42zM235 298.333v-42h42v42h-42zM427 362.333q17 0 29.5-12.5t12.5-29.5v-214q0-17-12.5-29.5t-29.5-12.5h-342q-17 0-29.5 12.5t-12.5 29.5v214q0 17 12.5 29.5t29.5 12.5h342z" />
<glyph unicode="&#xe10f;" glyph-name="keyboard_arrow_down" d="M158 302.333l98-98 98 98 30-30-128-128-128 128z" />
<glyph unicode="&#xe110;" glyph-name="keyboard_arrow_left" d="M329 126.333l-30-30-128 128 128 128 30-30-98-98z" />
<glyph unicode="&#xe111;" glyph-name="keyboard_arrow_right" d="M183 120.333l98 98-98 98 30 30 128-128-128-128z" />
<glyph unicode="&#xe112;" glyph-name="keyboard_arrow_up" d="M158 140.333l-30 30 128 128 128-128-30-30-98 98z" />
<glyph unicode="&#xe113;" glyph-name="keyboard_backspace" d="M448 234.333v-42h-302l76-77-30-30-128 128 128 128 30-30-76-77h302z" />
<glyph unicode="&#xe114;" glyph-name="keyboard_capslock" d="M128 85.333v43h256v-43h-256zM256 290.333l-98-98-30 30 128 128 128-128-30-30z" />
<glyph unicode="&#xe115;" glyph-name="keyboard_hide" d="M256-21.667l-85 86h170zM405 298.333v43h-42v-43h42zM405 234.333v43h-42v-43h42zM341 298.333v43h-42v-43h42zM341 234.333v43h-42v-43h42zM341 149.333v43h-170v-43h170zM149 298.333v43h-42v-43h42zM149 234.333v43h-42v-43h42zM171 277.333v-43h42v43h-42zM171 341.333v-43h42v43h-42zM235 277.333v-43h42v43h-42zM235 341.333v-43h42v43h-42zM427 405.333q17 0 29.5-13t12.5-30v-213q0-17-12.5-30t-29.5-13h-342q-17 0-29.5 13t-12.5 30v213q0 17 12.5 30t29.5 13h342z" />
<glyph unicode="&#xe116;" glyph-name="keyboard_return" d="M405 320.333h43v-128h-324l77-77-30-30-128 128 128 128 30-30-77-77h281v86z" />
<glyph unicode="&#xe117;" glyph-name="keyboard_tab" d="M427 341.333h42v-256h-42v256zM247 311.333l30 30 128-128-128-128-30 30 77 77h-303v42h303z" />
<glyph unicode="&#xe118;" glyph-name="keyboard_voice" d="M369 213.333h36q0-54-37.5-94.5t-90.5-48.5v-70h-42v70q-53 8-90.5 48.5t-37.5 94.5h36q0-47 33.5-78t79.5-31 79.5 31 33.5 78zM256 149.333q-26 0-45 19t-19 45v128q0 26 19 45t45 19 45-19 19-45v-128q0-26-19-45t-45-19z" />
<glyph unicode="&#xe119;" glyph-name="laptop" d="M85 341.333v-213h342v213h-342zM427 85.333h85v-43h-512v43h85q-17 0-29.5 13t-12.5 30v213q0 17 12.5 30t29.5 13h342q17 0 29.5-13t12.5-30v-213q0-17-12.5-30t-29.5-13z" />
<glyph unicode="&#xe11a;" glyph-name="laptop_chromebook" d="M427 149.333v213h-342v-213h342zM299 85.333v21h-86v-21h86zM469 85.333h43v-43h-512v43h43v320h426v-320z" />
<glyph unicode="&#xe11b;" glyph-name="laptop_mac" d="M256 64.333q9 0 15 6t6 15-6 15-15 6-15-6-6-15 6-15 15-6zM85 362.333v-234h342v234h-342zM427 85.333h85q0-17-13-30t-30-13h-426q-17 0-30 13t-13 30h85q-17 0-29.5 13t-12.5 30v234q0 17 12.5 30t29.5 13h342q17 0 29.5-13t12.5-30v-234q0-17-12.5-30t-29.5-13z" />
<glyph unicode="&#xe11c;" glyph-name="laptop_windows" d="M85 362.333v-213h342v213h-342zM427 85.333h85v-43h-512v43h85v21q-17 0-29.5 13t-12.5 30v213q0 17 12.5 30t29.5 13h342q17 0 29.5-13t12.5-30v-213q0-17-12.5-30t-29.5-13v-21z" />
<glyph unicode="&#xe11d;" glyph-name="memory" d="M363 106.333v214h-214v-214h214zM448 234.333h-43v-42h43v-43h-43v-43q0-17-12.5-29.5t-29.5-12.5h-43v-43h-43v43h-42v-43h-43v43h-43q-17 0-29.5 12.5t-12.5 29.5v43h-43v43h43v42h-43v43h43v43q0 17 12.5 29.5t29.5 12.5h43v43h43v-43h42v43h43v-43h43q17 0 29.5-12.5t12.5-29.5v-43h43v-43zM277 192.333v42h-42v-42h42zM320 277.333v-128h-128v128h128z" />
<glyph unicode="&#xe11e;" glyph-name="mouse" d="M235 446.333v-169h-150q0 65 43.5 113t106.5 56zM85 149.333v85h342v-85q0-70-50.5-120.5t-120.5-50.5-120.5 50.5-50.5 120.5zM277 446.333q63-8 106.5-56t43.5-113h-150v169z" />
<glyph unicode="&#xe11f;" glyph-name="phone_android" d="M368 85.333v299h-224v-299h224zM299 21.333v21h-86v-21h86zM341 448.333q26 0 45-19t19-45v-342q0-26-19-45t-45-19h-170q-26 0-45 19t-19 45v342q0 26 19 45t45 19h170z" />
<glyph unicode="&#xe120;" glyph-name="phone_iphone" d="M341 85.333v299h-192v-299h192zM245 0.333q13 0 22.5 9.5t9.5 22.5-9.5 22.5-22.5 9.5-22.5-9.5-9.5-22.5 9.5-22.5 22.5-9.5zM331 448.333q22 0 37.5-16t15.5-38v-362q0-22-15.5-38t-37.5-16h-171q-22 0-37.5 16t-15.5 38v362q0 22 15.5 38t37.5 16h171z" />
<glyph unicode="&#xe121;" glyph-name="phonelink" d="M469 106.333v150h-85v-150h85zM491 298.333q9 0 15-6t6-15v-213q0-9-6-15.5t-15-6.5h-128q-9 0-15.5 6.5t-6.5 15.5v213q0 9 6.5 15t15.5 6h128zM85 341.333v-235h214v-64h-299v64h43v235q0 17 12.5 30t29.5 13h384v-43h-384z" />
<glyph unicode="&#xe122;" glyph-name="phonelink_off" d="M491 298.333q9 0 15-6t6-15v-213q0-9-6-15.5t-15-6.5h-4l-64 64h46v150h-85v-111l-43 43v89q0 9 6.5 15t15.5 6h128zM85 335.333v-229h229zM41 434.333q81-81 230.5-231t183.5-184l-27-27-50 50h-378v64h43v235q0 15 10 27l-39 39zM469 341.333h-281l-43 43h324v-43z" />
<glyph unicode="&#xe123;" glyph-name="router" d="M320 85.333v43h-43v-43h43zM245 85.333v43h-42v-43h42zM171 85.333v43h-43v-43h43zM405 192.333q17 0 30-13t13-30v-85q0-17-13-30t-30-13h-298q-17 0-30 13t-13 30v85q0 17 13 30t30 13h213v85h43v-85h42zM412 326.333l-17-17q-21 21-54 21-32 0-53-21l-17 17q30 30 70 30 41 0 71-30zM431 343.333q-41 36-90 36-48 0-89-36l-17 17q45 45 106 45 62 0 107-45z" />
<glyph unicode="&#xe124;" glyph-name="scanner" d="M405 106.333v43h-213v-43h213zM149 106.333v43h-42v-43h42zM422 241.333q11-3 18.5-14.5t7.5-24.5v-117q0-17-13-30t-30-13h-298q-17 0-30 13t-13 30v85q0 17 13 30t30 13h268l-300 109 15 40z" />
<glyph unicode="&#xe125;" glyph-name="security" d="M256 448.333l192-86v-128q0-89-55-162.5t-137-93.5q-82 20-137 93.5t-55 162.5v128zM256 213.333v-191q59 19 100 71.5t49 119.5h-149zM256 213.333v188l-149-66v-122h149z" />
<glyph unicode="&#xe126;" glyph-name="sim_card" d="M363 149.333v85h-43v-85h43zM277 192.333v42h-42v-42h42zM277 64.333v85h-42v-85h42zM192 149.333v85h-43v-85h43zM363 64.333v42h-43v-42h43zM192 64.333v42h-43v-42h43zM426 384.333l1-342q0-17-13-29.5t-30-12.5h-256q-17 0-30 12.5t-13 29.5v256l128 128h171q17 0 29.5-12.5t12.5-29.5z" />
<glyph unicode="&#xe127;" glyph-name="smartphone" d="M363 64.333v298h-214v-298h214zM363 447.333q17 0 29.5-12.5t12.5-29.5v-384q0-17-12.5-30t-29.5-13h-214q-17 0-29.5 13t-12.5 30v384q0 17 12.5 30t29.5 13z" />
<glyph unicode="&#xe128;" glyph-name="speaker" d="M256 213.333q26 0 45-19t19-45-19-45-45-19-45 19-19 45 19 45 45 19zM256 42.333q44 0 75.5 31.5t31.5 75.5-31.5 75.5-75.5 31.5-75.5-31.5-31.5-75.5 31.5-75.5 75.5-31.5zM256 384.333q-18 0-30.5-13t-12.5-30 12.5-30 30.5-13q17 0 30 13t13 30-13 30-30 13zM363 426.333q17 0 29.5-12.5t12.5-29.5v-342q0-17-12.5-29.5t-29.5-12.5h-214q-17 0-29.5 12.5t-12.5 29.5v342q0 17 12.5 29.5t29.5 12.5h214z" />
<glyph unicode="&#xe129;" glyph-name="speaker_group" d="M128 362.333v-341h213v-43h-213q-18 0-30.5 13t-12.5 30v341h43zM245 202.333q0 22 16 38t38 16 37.5-16 15.5-38-15.5-37.5-37.5-15.5-38 15.5-16 37.5zM299 117.333q35 0 60 25t25 60-25 60.5-60 25.5-60.5-25.5-25.5-60.5 25.5-60 60.5-25zM299 405.333q-17 0-30-12.5t-13-30.5 12.5-30 30.5-12q17 0 29.5 12t12.5 30-12.5 30.5-29.5 12.5zM388 448.333q16 0 27.5-11.5t11.5-27.5v-307q0-16-11.5-27t-27.5-11h-179q-16 0-27 11t-11 27v307q0 16 11 27.5t27 11.5h179z" />
<glyph unicode="&#xe12a;" glyph-name="tablet" d="M405 85.333v256h-298v-256h298zM448 384.333q17 0 30-13t13-30l-1-256q0-17-12.5-30t-29.5-13h-384q-17 0-30 13t-13 30v256q0 17 13 30t30 13h384z" />
<glyph unicode="&#xe12b;" glyph-name="tablet_android" d="M411 64.333v341h-310v-341h310zM299 0.333v21h-86v-21h86zM384 469.333q26 0 45-19t19-45v-384q0-26-19-45t-45-19h-256q-26 0-45 19t-19 45v384q0 26 19 45t45 19h256z" />
<glyph unicode="&#xe12c;" glyph-name="tablet_mac" d="M405 64.333v341h-320v-341h320zM245-21.667q13 0 22.5 9.5t9.5 22.5-9.5 22.5-22.5 9.5-22.5-9.5-9.5-22.5 9.5-22.5 22.5-9.5zM395 469.333q22 0 37.5-15.5t15.5-37.5v-406q0-22-15.5-37.5t-37.5-15.5h-299q-22 0-37.5 15.5t-15.5 37.5v406q0 22 15.5 37.5t37.5 15.5h299z" />
<glyph unicode="&#xe12d;" glyph-name="toys" d="M256 213.333q0-48-34.5-82.5t-82.5-34.5-83 34.5-35 82.5h235zM256 213.333q-48 0-82.5 34.5t-34.5 82.5 34.5 83 82.5 35v-235zM256 213.333q48 0 82.5-34.5t34.5-82.5-34.5-83-82.5-35v235zM256 213.333q0 48 34.5 82.5t82.5 34.5 83-34.5 35-82.5h-235z" />
<glyph unicode="&#xe12e;" glyph-name="tv" d="M448 106.333v256h-384v-256h384zM448 405.333q17 0 30-13t13-30l-1-256q0-17-12.5-29.5t-29.5-12.5h-107v-43h-170v43h-107q-17 0-30 12.5t-13 29.5v256q0 17 13 30t30 13h384z" />
<glyph unicode="&#xe12f;" glyph-name="watch" d="M128 213.333q0-53 37.5-90.5t90.5-37.5 90.5 37.5 37.5 90.5-37.5 90.5-90.5 37.5-90.5-37.5-37.5-90.5zM427 213.333q0-82-65-134l-21-122h-170l-21 122q-65 50-65 134t65 134l21 122h170l21-122q65-52 65-134z" />
<glyph unicode="&#xe130;" glyph-name="device_hub" d="M363 128.333h85v-107h-107v65l-85 90-85-90v-65h-107v107h85l86 85v68q-19 7-31 23t-12 37q0 26 19 45t45 19 45-19 19-45q0-21-12-37t-31-23v-68z" />
<glyph unicode="&#xe131;" glyph-name="power_input" d="M341 149.333v43h107v-43h-107zM192 149.333v43h107v-43h-107zM43 149.333v43h106v-43h-106zM43 277.333h405v-43h-405v43z" />
<glyph unicode="&#xe132;" glyph-name="add_to_photos" d="M405 234.333v43h-85v85h-43v-85h-85v-43h85v-85h43v85h85zM427 426.333q17 0 29.5-12.5t12.5-29.5v-256q0-17-12.5-30t-29.5-13h-256q-17 0-30 13t-13 30v256q0 17 13 29.5t30 12.5h256zM85 341.333v-299h299v-42h-299q-17 0-29.5 12.5t-12.5 29.5v299h42z" />
<glyph unicode="&#xe133;" glyph-name="adjust" d="M320 213.333q0-26-19-45t-45-19-45 19-19 45 19 45 45 19 45-19 19-45zM256 42.333q70 0 120.5 50.5t50.5 120.5-50.5 120.5-120.5 50.5-120.5-50.5-50.5-120.5 50.5-120.5 120.5-50.5zM256 426.333q88 0 150.5-62.5t62.5-150.5-62.5-150.5-150.5-62.5-150.5 62.5-62.5 150.5 62.5 150.5 150.5 62.5z" />
<glyph unicode="&#xe134;" glyph-name="assistant" d="M296 194.333l88 40-88 40-40 88-40-88-88-40 88-40 40-88zM405 426.333q17 0 30-12.5t13-29.5v-299q0-17-13-30t-30-13h-85l-64-64-64 64h-85q-17 0-30 13t-13 30v299q0 17 13 29.5t30 12.5h298z" />
<glyph unicode="&#xe135;" glyph-name="assistant_photo" d="M307 341.333h120v-213h-150l-8 42h-120v-149h-42v363h192z" />
<glyph unicode="&#xe136;" glyph-name="audiotrack" d="M256 405.333h149v-64h-85v-235h-1q-4-36-31-60.5t-64-24.5q-40 0-68 28t-28 68 28 68 68 28q17 0 32-6v198z" />
<glyph unicode="&#xe137;" glyph-name="blur_circular" d="M299 192.333q9 0 15-6.5t6-15.5-6-15-15-6-15.5 6-6.5 15 6.5 15.5 15.5 6.5zM299 117.333q10 0 10-11 0-10-10-10-11 0-11 10 0 11 11 11zM256 42.333q70 0 120.5 50.5t50.5 120.5-50.5 120.5-120.5 50.5-120.5-50.5-50.5-120.5 50.5-120.5 120.5-50.5zM256 426.333q88 0 150.5-62.5t62.5-150.5-62.5-150.5-150.5-62.5-150.5 62.5-62.5 150.5 62.5 150.5 150.5 62.5zM363 266.333q10 0 10-10 0-11-10-11-11 0-11 11 0 10 11 10zM363 181.333q10 0 10-11 0-10-10-10-11 0-11 10 0 11 11 11zM299 309.333q-11 0-11 11 0 10 11 10 10 0 10-10 0-11-10-11zM299 277.333q9 0 15-6t6-15-6-15.5-15-6.5-15.5 6.5-6.5 15.5 6.5 15 15.5 6zM213 309.333q-10 0-10 11 0 10 10 10 11 0 11-10 0-11-11-11zM149 181.333q11 0 11-11 0-10-11-10-10 0-10 10 0 11 10 11zM213 117.333q11 0 11-11 0-10-11-10-10 0-10 10 0 11 10 11zM149 266.333q11 0 11-10 0-11-11-11-10 0-10 11 0 10 10 10zM213 192.333q9 0 15.5-6.5t6.5-15.5-6.5-15-15.5-6-15 6-6 15 6 15.5 15 6.5zM213 277.333q9 0 15.5-6t6.5-15-6.5-15.5-15.5-6.5-15 6.5-6 15.5 6 15 15 6z" />
<glyph unicode="&#xe138;" glyph-name="blur_linear" d="M277 106.333q-9 0-15 6.5t-6 15.5 6 15 15 6 15.5-6 6.5-15-6.5-15.5-15.5-6.5zM277 192.333q-9 0-15 6t-6 15 6 15 15 6 15.5-6 6.5-15-6.5-15-15.5-6zM277 277.333q-9 0-15 6t-6 15 6 15.5 15 6.5 15.5-6.5 6.5-15.5-6.5-15-15.5-6zM363 202.333q-11 0-11 11t11 11q10 0 10-11t-10-11zM363 288.333q-11 0-11 10 0 11 11 11 10 0 10-11 0-10-10-10zM64 405.333h384v-43h-384v43zM363 117.333q-11 0-11 11 0 10 11 10 10 0 10-10 0-11-10-11zM192 106.333q-9 0-15 6.5t-6 15.5 6 15 15 6 15-6 6-15-6-15.5-15-6.5zM107 181.333q-13 0-22.5 9t-9.5 23 9.5 23 22.5 9 22.5-9 9.5-23-9.5-23-22.5-9zM107 266.333q-13 0-22.5 9.5t-9.5 22.5 9.5 22.5 22.5 9.5 22.5-9.5 9.5-22.5-9.5-22.5-22.5-9.5zM64 21.333v43h384v-43h-384zM192 277.333q-9 0-15 6t-6 15 6 15.5 15 6.5 15-6.5 6-15.5-6-15-15-6zM192 192.333q-9 0-15 6t-6 15 6 15 15 6 15-6 6-15-6-15-15-6zM107 96.333q-13 0-22.5 9.5t-9.5 22.5 9.5 22.5 22.5 9.5 22.5-9.5 9.5-22.5-9.5-22.5-22.5-9.5z" />
<glyph unicode="&#xe139;" glyph-name="blur_off" d="M64 181.333q11 0 11-11 0-10-11-10t-11 10q0 11 11 11zM128 106.333q9 0 15-6t6-15-6-15-15-6-15 6-6 15 6 15 15 6zM213 32.333q11 0 11-11t-11-11q-10 0-10 11t10 11zM64 266.333q11 0 11-10 0-11-11-11t-11 11q0 10 11 10zM128 192.333q9 0 15-6.5t6-15.5-6-15-15-6-15 6-6 15 6 15.5 15 6.5zM448 181.333q11 0 11-11 0-10-11-10t-11 10q0 11 11 11zM213 106.333q9 0 15.5-6t6.5-15-6.5-15-15.5-6-15 6-6 15 6 15 15 6zM53 357.333l27 27 347-347-28-27-80 81q1-2 1-6 0-9-6-15t-15-6-15.5 6-6.5 15 6.5 15 15.5 6q4 0 6-1l-60 60q-2-11-11-19t-21-8q-13 0-22.5 9.5t-9.5 22.5q0 12 8 21t19 11l-60 60q1-2 1-6 0-9-6-15.5t-15-6.5-15 6.5-6 15.5 6 15 15 6l6-1zM299 32.333q10 0 10-11t-10-11q-11 0-11 11t11 11zM384 320.333q-9 0-15 6t-6 15 6 15 15 6 15-6 6-15-6-15-15-6zM384 234.333q-9 0-15 6.5t-6 15.5 6 15 15 6 15-6 6-15-6-15.5-15-6.5zM384 149.333q-9 0-15 6t-6 15 6 15.5 15 6.5 15-6.5 6-15.5-6-15-15-6zM213 320.333q-9 0-15 6t-6 15 6 15 15 6 15.5-6 6.5-15-6.5-15-15.5-6zM448 245.333q-11 0-11 11 0 10 11 10t11-10q0-11-11-11zM213 394.333q-10 0-10 11t10 11q11 0 11-11t-11-11zM299 394.333q-11 0-11 11t11 11q10 0 10-11t-10-11zM294 224.333q-10 1-18 9t-9 18v5q0 13 9.5 22.5t22.5 9.5 22.5-9.5 9.5-22.5-9.5-22.5-22.5-9.5h-5zM299 320.333q-9 0-15.5 6t-6.5 15 6.5 15 15.5 6 15-6 6-15-6-15-15-6z" />
<glyph unicode="&#xe13a;" glyph-name="blur_on" d="M299 288.333q13 0 22.5-9.5t9.5-22.5-9.5-22.5-22.5-9.5-22.5 9.5-9.5 22.5 9.5 22.5 22.5 9.5zM299 202.333q13 0 22.5-9.5t9.5-22.5-9.5-22.5-22.5-9.5-22.5 9.5-9.5 22.5 9.5 22.5 22.5 9.5zM213 106.333q9 0 15.5-6t6.5-15-6.5-15-15.5-6-15 6-6 15 6 15 15 6zM213 288.333q13 0 22.5-9.5t9.5-22.5-9.5-22.5-22.5-9.5-22.5 9.5-9.5 22.5 9.5 22.5 22.5 9.5zM299 32.333q10 0 10-11t-10-11q-11 0-11 11t11 11zM299 106.333q9 0 15-6t6-15-6-15-15-6-15.5 6-6.5 15 6.5 15 15.5 6zM448 181.333q11 0 11-11 0-10-11-10t-11 10q0 11 11 11zM384 362.333q9 0 15-6t6-15-6-15-15-6-15 6-6 15 6 15 15 6zM384 277.333q9 0 15-6t6-15-6-15.5-15-6.5-15 6.5-6 15.5 6 15 15 6zM384 106.333q9 0 15-6t6-15-6-15-15-6-15 6-6 15 6 15 15 6zM384 192.333q9 0 15-6.5t6-15.5-6-15-15-6-15 6-6 15 6 15.5 15 6.5zM213 202.333q13 0 22.5-9.5t9.5-22.5-9.5-22.5-22.5-9.5-22.5 9.5-9.5 22.5 9.5 22.5 22.5 9.5zM213 320.333q-9 0-15 6t-6 15 6 15 15 6 15.5-6 6.5-15-6.5-15-15.5-6zM213 394.333q-10 0-10 11t10 11q11 0 11-11t-11-11zM213 32.333q11 0 11-11t-11-11q-10 0-10 11t10 11zM64 181.333q11 0 11-11 0-10-11-10t-11 10q0 11 11 11zM299 394.333q-11 0-11 11t11 11q10 0 10-11t-10-11zM299 320.333q-9 0-15.5 6t-6.5 15 6.5 15 15.5 6 15-6 6-15-6-15-15-6zM448 245.333q-11 0-11 11 0 10 11 10t11-10q0-11-11-11zM128 362.333q9 0 15-6t6-15-6-15-15-6-15 6-6 15 6 15 15 6zM64 266.333q11 0 11-10 0-11-11-11t-11 11q0 10 11 10zM128 277.333q9 0 15-6t6-15-6-15.5-15-6.5-15 6.5-6 15.5 6 15 15 6zM128 106.333q9 0 15-6t6-15-6-15-15-6-15 6-6 15 6 15 15 6zM128 192.333q9 0 15-6.5t6-15.5-6-15-15-6-15 6-6 15 6 15.5 15 6.5z" />
<glyph unicode="&#xe13b;" glyph-name="brightness_1" d="M43 213.333q0 88 62.5 150.5t150.5 62.5 150.5-62.5 62.5-150.5-62.5-150.5-150.5-62.5-150.5 62.5-62.5 150.5z" />
<glyph unicode="&#xe13c;" glyph-name="brightness_2" d="M213 426.333q89 0 151.5-62.5t62.5-150.5-62.5-150.5-151.5-62.5q-58 0-106 28 49 28 77.5 77.5t28.5 107.5-28.5 107.5-77.5 77.5q48 28 106 28z" />
<glyph unicode="&#xe13d;" glyph-name="brightness_3" d="M192 426.333q88 0 150.5-62.5t62.5-150.5-62.5-150.5-150.5-62.5q-34 0-64 9 66 20 107.5 76.5t41.5 127.5-41.5 127.5-107.5 76.5q30 9 64 9z" />
<glyph unicode="&#xe13e;" glyph-name="brightness_4" d="M256 85.333q53 0 90.5 37.5t37.5 90.5-37.5 90.5-90.5 37.5q-26 0-53-12 33-15 53.5-46.5t20.5-69.5-20.5-69.5-53.5-46.5q27-12 53-12zM427 284.333l70-71-70-71v-100h-100l-71-70-71 70h-100v100l-70 71 70 71v100h100l71 70 71-70h100v-100z" />
<glyph unicode="&#xe13f;" glyph-name="brightness_5" d="M256 85.333q53 0 90.5 37.5t37.5 90.5-37.5 90.5-90.5 37.5-90.5-37.5-37.5-90.5 37.5-90.5 90.5-37.5zM427 142.333v-100h-100l-71-70-71 70h-100v100l-70 71 70 71v100h100l71 70 71-70h100v-100l70-71z" />
<glyph unicode="&#xe140;" glyph-name="brightness_6" d="M256 85.333q53 0 90.5 37.5t37.5 90.5-37.5 90.5-90.5 37.5v-256zM427 142.333v-100h-100l-71-70-71 70h-100v100l-70 71 70 71v100h100l71 70 71-70h100v-100l70-71z" />
<glyph unicode="&#xe141;" glyph-name="brightness_7" d="M256 298.333q35 0 60-25t25-60-25-60-60-25-60 25-25 60 25 60 60 25zM256 85.333q53 0 90.5 37.5t37.5 90.5-37.5 90.5-90.5 37.5-90.5-37.5-37.5-90.5 37.5-90.5 90.5-37.5zM427 284.333l70-71-70-71v-100h-100l-71-70-71 70h-100v100l-70 71 70 71v100h100l71 70 71-70h100v-100z" />
<glyph unicode="&#xe142;" glyph-name="broken_image" d="M384 225.333l64-64v-97q0-17-13-30t-30-13h-298q-17 0-30 13t-13 30v140l64-64 85 86 86-86zM448 362.333v-140l-64 64-85-86-86 86-85-86-64 65v97q0 17 13 30t30 13h298q17 0 30-13t13-30z" />
<glyph unicode="&#xe143;" glyph-name="brush" d="M442 370.333q6-6 6-15t-6-15l-191-191-59 59 191 191q6 6 15 6t15-6zM149 170.333q26 0 45-19t19-45q0-35-25-60t-60-25q-52 0-85 43 15 0 28.5 11.5t13.5 30.5q0 26 19 45t45 19z" />
<glyph unicode="&#xe144;" glyph-name="camera" d="M210 5.333q4 7 43 75t60 103l78-135q-59-48-135-48-21 0-46 5zM52 149.333h207l-79-135q-46 17-79.5 52.5t-48.5 82.5zM99 357.333l108-187h-160q-4 19-4 43 0 83 56 144zM465 256.333q4-19 4-43 0-83-56-144l-102 176-6 11h160zM460 277.333h-207l79 135q46-17 79.5-52.5t48.5-82.5zM201 245.333l-2-2-78 135q59 48 135 48 21 0 46-5z" />
<glyph unicode="&#xe145;" glyph-name="camera_alt" d="M256 106.333q44 0 75.5 31.5t31.5 75.5-31.5 75.5-75.5 31.5-75.5-31.5-31.5-75.5 31.5-75.5 75.5-31.5zM192 426.333h128l39-42h68q17 0 29.5-13t12.5-30v-256q0-17-12.5-30t-29.5-13h-342q-17 0-29.5 13t-12.5 30v256q0 17 12.5 30t29.5 13h68zM188 213.333q0 28 20 48t48 20 48-20 20-48-20-48-48-20-48 20-20 48z" />
<glyph unicode="&#xe146;" glyph-name="camera_front" d="M149 426.333v-224q0 24 36.5 39t70.5 15 70.5-15 36.5-39v224h-214zM363 469.333q17 0 29.5-13t12.5-30v-298q0-17-12.5-30t-29.5-13h-150l64-64-64-64v43h-106v42h106v43h-64q-17 0-29.5 13t-12.5 30v298q0 17 12.5 30t29.5 13h214zM256 298.333q-17 0-29.5 13t-12.5 30 12.5 30 29.5 13 30-13 13-30-13-30-30-13zM299 42.333h106v-42h-106v42z" />
<glyph unicode="&#xe147;" glyph-name="camera_rear" d="M256 341.333q17 0 29.5 13t12.5 30-12.5 29.5-29.5 12.5-30-12.5-13-29.5 12.5-30 30.5-13zM363 469.333q17 0 29.5-13t12.5-30v-298q0-17-12.5-30t-29.5-13h-150l64-64-64-64v43h-106v42h106v43h-64q-17 0-29.5 13t-12.5 30v298q0 17 12.5 30t29.5 13h214zM299 42.333h106v-42h-106v42z" />
<glyph unicode="&#xe148;" glyph-name="camera_roll" d="M427 277.333v43h-43v-43h43zM427 85.333v43h-43v-43h43zM341 277.333v43h-42v-43h42zM341 85.333v43h-42v-43h42zM256 277.333v43h-43v-43h43zM256 85.333v43h-43v-43h43zM299 362.333h170v-320h-170q0-17-13-29.5t-30-12.5h-171q-17 0-29.5 12.5t-12.5 29.5v320q0 17 12.5 30t29.5 13h22v21q0 9 6 15.5t15 6.5h85q9 0 15.5-6.5t6.5-15.5v-21h21q17 0 30-13t13-30z" />
<glyph unicode="&#xe149;" glyph-name="center_focus_strong" d="M405 64.333v85h43v-85q0-17-13-30t-30-13h-85v43h85zM405 405.333q17 0 30-13t13-30v-85h-43v85h-85v43h85zM107 362.333v-85h-43v85q0 17 13 30t30 13h85v-43h-85zM107 149.333v-85h85v-43h-85q-17 0-30 13t-13 30v85h43zM256 298.333q35 0 60-25t25-60-25-60-60-25-60 25-25 60 25 60 60 25z" />
<glyph unicode="&#xe14a;" glyph-name="center_focus_weak" d="M256 170.333q17 0 30 13t13 30-13 30-30 13-30-13-13-30 13-30 30-13zM256 298.333q35 0 60-25t25-60-25-60-60-25-60 25-25 60 25 60 60 25zM405 64.333v85h43v-85q0-17-13-30t-30-13h-85v43h85zM405 405.333q17 0 30-13t13-30v-85h-43v85h-85v43h85zM107 362.333v-85h-43v85q0 17 13 30t30 13h85v-43h-85zM107 149.333v-85h85v-43h-85q-17 0-30 13t-13 30v85h43z" />
<glyph unicode="&#xe14b;" glyph-name="collections" d="M43 341.333h42v-299h299v-42h-299q-17 0-29.5 12.5t-12.5 29.5v299zM235 213.333l-64-85h256l-86 106-63-79zM469 128.333q0-17-12.5-30t-29.5-13h-256q-17 0-30 13t-13 30v256q0 17 13 29.5t30 12.5h256q17 0 29.5-12.5t12.5-29.5v-256z" />
<glyph unicode="&#xe14c;" glyph-name="color_lens" d="M373 213.333q13 0 22.5 9t9.5 23-9.5 23-22.5 9-22.5-9-9.5-23 9.5-23 22.5-9zM309 298.333q13 0 22.5 9.5t9.5 22.5-9.5 22.5-22.5 9.5-22.5-9.5-9.5-22.5 9.5-22.5 22.5-9.5zM203 298.333q13 0 22.5 9.5t9.5 22.5-9.5 22.5-22.5 9.5-22.5-9.5-9.5-22.5 9.5-22.5 22.5-9.5zM139 213.333q13 0 22.5 9t9.5 23-9.5 23-22.5 9-22.5-9-9.5-23 9.5-23 22.5-9zM256 405.333q79 0 135.5-50t56.5-121q0-44-31.5-75t-75.5-31h-37q-14 0-23-9.5t-9-22.5q0-11 8-21t8-22q0-14-9-23t-23-9q-80 0-136 56t-56 136 56 136 136 56z" />
<glyph unicode="&#xe14d;" glyph-name="colorize" d="M148 64.333l172 172-41 41-172-172zM442 349.333q15-15 0-30l-67-67 41-41-30-30-30 30-191-190h-101v101l190 191-30 30 30 30 41-41 67 67q6 6 15 6t15-6z" />
<glyph unicode="&#xe14e;" glyph-name="compare" d="M405 405.333q17 0 30-13t13-30v-298q0-17-13-30t-30-13h-106v192l106-128v277h-106v43h106zM213 85.333v128l-106-128h106zM213 405.333v43h43v-470h-43v43h-106q-17 0-30 13t-13 30v298q0 17 13 30t30 13h106z" />
<glyph unicode="&#xe14f;" glyph-name="control_point" d="M256 42.333q70 0 120.5 50.5t50.5 120.5-50.5 120.5-120.5 50.5-120.5-50.5-50.5-120.5 50.5-120.5 120.5-50.5zM256 426.333q88 0 150.5-62.5t62.5-150.5-62.5-150.5-150.5-62.5-150.5 62.5-62.5 150.5 62.5 150.5 150.5 62.5zM277 320.333v-86h86v-42h-86v-86h-42v86h-86v42h86v86h42z" />
<glyph unicode="&#xe150;" glyph-name="control_point_duplicate" d="M320 64.333q62 0 105.5 43.5t43.5 105.5-43.5 105.5-105.5 43.5-105.5-43.5-43.5-105.5 43.5-105.5 105.5-43.5zM320 405.333q80 0 136-56t56-136-56-136-136-56-136 56-56 136 56 136 136 56zM43 213.333q0-44 23-80.5t62-54.5v-46q-56 20-92 70t-36 111 36 111 92 70v-46q-39-18-62-54.5t-23-80.5zM341 298.333v-64h64v-42h-64v-64h-42v64h-64v42h64v64h42z" />
<glyph unicode="&#xe151;" glyph-name="crop_16_9" d="M405 128.333v170h-298v-170h298zM405 341.333q17 0 30-13t13-30v-170q0-17-13-30t-30-13h-298q-17 0-30 13t-13 30v170q0 17 13 30t30 13h298z" />
<glyph unicode="&#xe152;" glyph-name="crop_3_2" d="M405 85.333v256h-298v-256h298zM405 384.333q17 0 30-13t13-30v-256q0-17-13-30t-30-13h-298q-17 0-30 13t-13 30v256q0 17 13 30t30 13h298z" />
<glyph unicode="&#xe153;" glyph-name="crop" d="M149 106.333h342v-42h-86v-86h-42v86h-214q-17 0-29.5 12.5t-12.5 29.5v214h-86v42h86v86h42v-342zM363 149.333v171h-171v42h171q17 0 29.5-12.5t12.5-29.5v-171h-42z" />
<glyph unicode="&#xe154;" glyph-name="crop_5_4" d="M405 106.333v214h-298v-214h298zM405 362.333q17 0 30-12.5t13-29.5v-214q0-17-13-29.5t-30-12.5h-298q-17 0-30 12.5t-13 29.5v214q0 17 13 29.5t30 12.5h298z" />
<glyph unicode="&#xe155;" glyph-name="crop_7_5" d="M405 149.333v128h-298v-128h298zM405 320.333q17 0 30-13t13-30v-128q0-17-13-30t-30-13h-298q-17 0-30 13t-13 30v128q0 17 13 30t30 13h298z" />
<glyph unicode="&#xe156;" glyph-name="crop_din" d="M405 64.333v298h-298v-298h298zM405 405.333q17 0 30-13t13-30v-298q0-17-13-30t-30-13h-298q-17 0-30 13t-13 30v298q0 17 13 30t30 13h298z" />
<glyph unicode="&#xe157;" glyph-name="crop_free" d="M405 405.333q17 0 30-13t13-30v-85h-43v85h-85v43h85zM405 64.333v85h43v-85q0-17-13-30t-30-13h-85v43h85zM107 149.333v-85h85v-43h-85q-17 0-30 13t-13 30v85h43zM64 362.333q0 17 13 30t30 13h85v-43h-85v-85h-43v85z" />
<glyph unicode="&#xe158;" glyph-name="crop_landscape" d="M405 106.333v214h-298v-214h298zM405 362.333q17 0 30-12.5t13-29.5v-214q0-17-13-29.5t-30-12.5h-298q-17 0-30 12.5t-13 29.5v214q0 17 13 29.5t30 12.5h298z" />
<glyph unicode="&#xe159;" glyph-name="crop_original" d="M298 207.333l75-101h-234l58 76 42-51zM405 64.333v298h-298v-298h298zM405 405.333q17 0 30-13t13-30v-298q0-17-13-30t-30-13h-298q-17 0-30 13t-13 30v298q0 17 13 30t30 13h298z" />
<glyph unicode="&#xe15a;" glyph-name="crop_portrait" d="M363 64.333v298h-214v-298h214zM363 405.333q17 0 29.5-13t12.5-30v-298q0-17-12.5-30t-29.5-13h-214q-17 0-29.5 13t-12.5 30v298q0 17 12.5 30t29.5 13h214z" />
<glyph unicode="&#xe15b;" glyph-name="crop_square" d="M384 85.333v256h-256v-256h256zM384 384.333q17 0 30-13t13-30v-256q0-17-13-30t-30-13h-256q-17 0-30 13t-13 30v256q0 17 13 30t30 13h256z" />
<glyph unicode="&#xe15c;" glyph-name="dehaze" d="M43 352.333h426v-43h-426v43zM43 245.333h426v-43h-426v43zM43 138.333h426v-42h-426v42z" />
<glyph unicode="&#xe15d;" glyph-name="details" d="M136 341.333l120-213 120 213h-240zM64 384.333h384l-192-342z" />
<glyph unicode="&#xe15e;" glyph-name="edit" d="M442 319.333l-39-39-80 80 39 39q6 6 15 6t15-6l50-50q6-6 6-15t-6-15zM64 101.333l236 236 80-80-236-236h-80v80z" />
<glyph unicode="&#xe15f;" glyph-name="exposure" d="M427 42.333v342l-342-342h342zM107 362.333v-42h128v42h-128zM427 426.333q17 0 29.5-12.5t12.5-29.5v-342q0-17-12.5-29.5t-29.5-12.5h-342q-17 0-29.5 12.5t-12.5 29.5v342q0 17 12.5 29.5t29.5 12.5h342zM320 106.333h-43v43h43v43h43v-43h42v-43h-42v-42h-43v42z" />
<glyph unicode="&#xe160;" glyph-name="exposure_minus_1" d="M405 85.333h-42v227l-64-22v36l100 36h6v-277zM85 234.333h171v-42h-171v42z" />
<glyph unicode="&#xe161;" glyph-name="exposure_minus_2" d="M43 234.333h170v-42h-170v42zM351 362.333q86 0 86-75 0-14-4-25-7-19-11-25-17-27-40-50l-61-66h127v-36h-184v32l89 97q18 18 31 40 7 12 7 28 0 13-2 18-10 26-38 26-46 0-46-49h-46q0 36 24 60 25 25 68 25z" />
<glyph unicode="&#xe162;" glyph-name="exposure_plus_1" d="M427 85.333h-43v227l-64-22v36l100 36h7v-277zM213 320.333v-86h86v-42h-86v-86h-42v86h-86v42h86v86h42z" />
<glyph unicode="&#xe163;" glyph-name="exposure_plus_2" d="M171 320.333v-86h85v-42h-85v-86h-43v86h-85v42h85v86h43zM342 121.333h127v-36h-184v32l89 97q18 18 31 40 8 13 8 28 0 16-11 31-10 13-30 13-21 0-35-14-11-11-11-35h-46q0 36 24 60 14 14 29 19 18 6 40 6 18 0 36-5 20-8 27-15 23-20 23-55 0-24-16-50-12-20-17-25-14-16-23-25z" />
<glyph unicode="&#xe164;" glyph-name="exposure_zero" d="M299 253.333q0 40-11 57-4 6-14 12-7 4-18 4t-18-4q-10-6-14-12-11-17-11-57v-57q0-56 25-71 7-4 18-4 21 0 32 17 12 18 12 58v57h-1zM168 246.333q0 116 88 116 65 0 82-62 7-26 7-54v-44h-1q0-59-24-90-14-16-28-21-16-6-36-6t-36 6q-14 5-28 21-24 27-24 90v44z" />
<glyph unicode="&#xe165;" glyph-name="filter_1" d="M448 106.333v299h-299v-299h299zM448 448.333q17 0 30-13t13-30v-299q0-17-13-29.5t-30-12.5h-299q-17 0-29.5 12.5t-12.5 29.5v299q0 17 12.5 30t29.5 13h299zM299 149.333v171h-43v42h85v-213h-42zM64 362.333v-341h341v-43h-341q-17 0-30 13t-13 30v341h43z" />
</font>
</defs>
</svg>
